(Шансон) [CD] Сборная Союза - Хрусталь и пепел - 2014, FLAC (image+.cue), lossless

 
Автор Сообщение

sergej644 ®

Пол:

Стаж: 4 года 11 месяцев

Сообщений: 6035

Откуда: Soviet Union



Награды: Нет

Торрент-статистика

Создавать темы 03-Сен-2014 19:19

[Цитировать]

Сборная Союза / Хрусталь и пепел-Жанр: Шансон
Носитель: CD
Страна-производитель диска: Россия
Год издания: 2014
Страна: Россия
Аудиокодек: FLAC (*.flac)
Тип рипа: image+.cue
Битрейт аудио: lossless
Продолжительность: 01:14:30
Источник (релизер): KEN-KIRILLOV
Наличие сканов в содержимом раздачи: да
-

Треклист

01. Позвони мне невзначай (3:32)
02. На Канары (3:25)
03. Хрусталь и пепел (4:09)
04. Делай что делаешь (3:27)
05. Причина любви (3:41)
06. Лечитесь любовью (3:23)
07. Я тебя обидел (3:53)
08. Это наша жизнь (4:00)
09. Ты со мной (3:18)
10. Формула любви (4:06)
11. Я тебя прошу не уходи (4:13)
12. Кинули на любовь (3:49)
13. Я ухожу прихожу (3:22)
14. Лучезарная любовь (4:22)
15. Снова утро придет (3:38)
16. Не спешите стареть (3:01)
17. Признание (3:42)
18. Лунный вечер (3:44)
19. Что же мы творим (3:48)
20. А я хочу (3:58)

Лог создания рипа

Exact Audio Copy V1.0 beta 3 from 29. August 2011
Отчёт EAC об извлечении, выполненном 18. февраля 2014, 22:28
Сборная Союза / Хрусталь и пепел
Дисковод: Optiarc DVD RW AD-5200S   Adapter: 1  ID: 1
Режим чтения                 : Достоверность
Использование точного потока : Да
Отключение кэша аудио        : Да
Использование указателей C2  : Нет
Коррекция смещения при чтении                     : 48
Способность читать области Lead-in и Lead-out     : Нет
Заполнение пропущенных сэмплов тишиной            : Да
Удаление блоков с тишиной в начале и конце        : Нет
При вычислениях CRC использовались нулевые сэмплы : Да
Интерфейс                                         : Установленный внешний ASPI-интерфейс
Выходной формат          : Пользовательский кодировщик
Выбранный битрейт        : 896 kBit/s
Качество                 : Высокий
Добавление ID3-тега      : Нет
Утилита сжатия           : E:\Portable Exact Audio Copy 1.0 beta 3 RUS\App\EAC\FLAC\flac.exe
Дополнительные параметры : -V -8 %source%
TOC извлечённого CD
Трек |   Старт  | Длительность | Начальный сектор | Конечный сектор
---------------------------------------------------------------------
1  |  0:00.00 |    3:32.21   |           0      |      15920
2  |  3:32.21 |    3:25.37   |       15921      |      31332
3  |  6:57.58 |    4:08.46   |       31333      |      49978
4  | 11:06.29 |    3:27.24   |       49979      |      65527
5  | 14:33.53 |    3:40.40   |       65528      |      82067
6  | 18:14.18 |    3:23.23   |       82068      |      97315
7  | 21:37.41 |    3:52.61   |       97316      |     114776
8  | 25:30.27 |    4:00.22   |      114777      |     132798
9  | 29:30.49 |    3:17.54   |      132799      |     147627
10  | 32:48.28 |    4:05.69   |      147628      |     166071
11  | 36:54.22 |    4:12.43   |      166072      |     185014
12  | 41:06.65 |    3:48.60   |      185015      |     202174
13  | 44:55.50 |    3:21.51   |      202175      |     217300
14  | 48:17.26 |    4:22.23   |      217301      |     236973
15  | 52:39.49 |    3:38.02   |      236974      |     253325
16  | 56:17.51 |    3:01.00   |      253326      |     266900
17  | 59:18.51 |    3:41.45   |      266901      |     283520
18  | 63:00.21 |    3:44.05   |      283521      |     300325
19  | 66:44.26 |    3:47.70   |      300326      |     317420
20  | 70:32.21 |    3:57.61   |      317421      |     335256
Характеристики диапазона извлечения и сообщения об ошибках
Выбранный диапазон
     Имя файла E:\Сборная союза 2014 - Хрусталь и пепел (Lossless)\Сборная Союза - Хрусталь и пепел.wav
     Пиковый уровень 95.1 %
     Скорость извлечения 4.5 X
     Качество диапазона 100.0 %
     CRC копии 156F8BC4
     Копирование... OK
Ошибок не произошло
Конец отчёта
==== Контрольная сумма отчёта 92F6446363F7E9C8EE1C3DE47AF34F9D39DCD12565959A26929B264F8C3B4CF1 ====

Лог проверки качества

AUDIOCHECKER v2.0 beta (build 457) - by Dester - opdester@freemail.hu
~~~~~~~~~~~~~~~~~~~~~~~~~~~~~~~~~~
-=== НЕ РЕДАКТИРУЙТЕ ЭТОТ ФАЙЛ! ===-
Путь: ...\Сборная союза 2014 - Хрусталь и пепел
1 -=- Сборная Союза - Хрусталь и пепел.Flac -=- CDDA (100%)
104784324

Скриншот спектра частот

--
[Профиль] [ЛС]

Создавать темы 13-Авг-2015 10:06 (спустя 11 месяцев 9 дней)

Топик был перенесен из форума Отечественная в форум Сhanson
sergej644
 
Кто просматривает тему:

Показать сообщения:    

Текущее время: Сегодня 20:02

Часовой пояс: GMT



Вы не можете начинать темы
Вы не можете отвечать на сообщения
Вы не можете редактировать свои сообщения
Вы не можете удалять свои сообщения
Вы не можете голосовать в опросах
Вы не можете прикреплять файлы к сообщениям
Вы не можете скачивать файлы