(Шансон) [CD] Сборная союза - Ничья - 2014, FLAC (image+.cue), lossless

 
Автор Сообщение

sergej644 ®

Пол:

Стаж: 4 года 11 месяцев

Сообщений: 6036

Откуда: Soviet Union



Награды: Нет

Торрент-статистика

Создавать темы 03-Сен-2014 19:09

[Цитировать]

группа СБОРНАЯ СОЮЗА / НИЧЬЯ-Жанр: Шансон
Носитель: CD
Страна-производитель диска: Россия
Год издания: 2014
Страна: Россия
Аудиокодек: FLAC (*.flac)
Тип рипа: image+.cue
Битрейт аудио: lossless
Продолжительность: 01:10:10
Источник (релизер): KEN-KIRILLOV
Наличие сканов в содержимом раздачи: да
-

Треклист

01. Ничья (3:48)
02. Птица-ночь птица-день (3:37)
03. Любовь-магнит (3:42)
04. Весна (3:54)
05. Заноза (3:58)
06. Он так устроен (3:53)
07. Зачем? (3:51)
08. Здравствуй Новый год! (3:47)
09. Добрый день! (3:46)
10. Тысячи звёзд (3:26)
11. По кочану (3:20)
12. Принцесса на горошине (3:46)
13. Нам рога нафига?! (2:57)
14. Однажды на беду (3:33)
15. Конкурс красоты (3:16)
16. Жизнь-тельняшка (4:06)
17. Родом из детства (4:08)
18. Там за рекой (3:30)
19. Майя (3:51)

Лог создания рипа

Exact Audio Copy V1.0 beta 3 from 29. August 2011
Отчёт EAC об извлечении, выполненном 11. марта 2014, 20:19
Сборная союза / Ничья
Дисковод: Optiarc DVD RW AD-5200S   Adapter: 1  ID: 1
Режим чтения                 : Достоверность
Использование точного потока : Да
Отключение кэша аудио        : Да
Использование указателей C2  : Нет
Коррекция смещения при чтении                     : 48
Способность читать области Lead-in и Lead-out     : Нет
Заполнение пропущенных сэмплов тишиной            : Да
Удаление блоков с тишиной в начале и конце        : Нет
При вычислениях CRC использовались нулевые сэмплы : Да
Интерфейс                                         : Установленный внешний ASPI-интерфейс
Выходной формат          : Пользовательский кодировщик
Выбранный битрейт        : 896 kBit/s
Качество                 : Высокий
Добавление ID3-тега      : Нет
Утилита сжатия           : E:\Portable Exact Audio Copy 1.0 beta 3 RUS\App\EAC\FLAC\flac.exe
Дополнительные параметры : -V -8 %source%
TOC извлечённого CD
Трек |   Старт  | Длительность | Начальный сектор | Конечный сектор
---------------------------------------------------------------------
  1  |  0:00.00 |    3:47.61   |           0      |      17085
  2  |  3:47.61 |    3:37.18   |       17086      |      33378
  3  |  7:25.04 |    3:41.74   |       33379      |      50027
  4  | 11:07.03 |    3:54.36   |       50028      |      67613
  5  | 15:01.39 |    3:57.69   |       67614      |      85457
  6  | 18:59.33 |    3:52.64   |       85458      |     102921
  7  | 22:52.22 |    3:50.52   |      102922      |     120223
  8  | 26:42.74 |    3:47.14   |      120224      |     137262
  9  | 30:30.13 |    3:46.14   |      137263      |     154226
10  | 34:16.27 |    3:25.59   |      154227      |     169660
11  | 37:42.11 |    3:20.09   |      169661      |     184669
12  | 41:02.20 |    3:46.28   |      184670      |     201647
13  | 44:48.48 |    2:57.05   |      201648      |     214927
14  | 47:45.53 |    3:33.07   |      214928      |     230909
15  | 51:18.60 |    3:15.72   |      230910      |     245606
16  | 54:34.57 |    4:06.14   |      245607      |     264070
17  | 58:40.71 |    4:08.09   |      264071      |     282679
18  | 62:49.05 |    3:29.59   |      282680      |     298413
19  | 66:18.64 |    3:50.61   |      298414      |     315724
Характеристики диапазона извлечения и сообщения об ошибках
Выбранный диапазон
Имя файла E:\Сборная союза 2014 - Ничья (Lossless)\Сборная союза - Ничья.wav
Пиковый уровень 95.0 %
Скорость извлечения 4.4 X
Качество диапазона 100.0 %
CRC теста 2372813F
CRC копии 2372813F
Копирование... OK
Ошибок не произошло
Конец отчёта
==== Контрольная сумма отчёта 0C6AE26CC92033E3C8ED7FA61F0E144C5635A21BB85CDFFAEE33781CF742F828 ====

Лог проверки качества

AUDIOCHECKER v2.0 beta (build 457) - by Dester - opdester@freemail.hu
~~~~~~~~~~~~~~~~~~~~~~~~~~~~~~~~~~
-=== НЕ РЕДАКТИРУЙТЕ ЭТОТ ФАЙЛ! ===-
Путь: ...\Сборная союза 2014 - Ничья
1 -=- Сборная союза - Ничья.Flac -=- CDDA (100%)
58649332

Скриншот спектра частот

--
[Профиль] [ЛС]

Создавать темы 13-Авг-2015 10:06 (спустя 11 месяцев 9 дней)

Топик был перенесен из форума Отечественная в форум Сhanson
sergej644
 
Кто просматривает тему:

Показать сообщения:    

Текущее время: Сегодня 14:03

Часовой пояс: GMT



Вы не можете начинать темы
Вы не можете отвечать на сообщения
Вы не можете редактировать свои сообщения
Вы не можете удалять свои сообщения
Вы не можете голосовать в опросах
Вы не можете прикреплять файлы к сообщениям
Вы не можете скачивать файлы