(Thrash Metal) [CD] Raped Ape - Land of Broken Promises - 2013, FLAC (image+.cue), lossless

 
Автор Сообщение

sergej644 ®

Пол:

Стаж: 4 года 11 месяцев

Сообщений: 6041

Откуда: Soviet Union



Награды: Нет

Торрент-статистика

Создавать темы 17-Июн-2015 15:02

[Цитировать]

--Raped Ape / Land of Broken Promises
Жанр: Thrash Metal
Носитель: CD
Год издания: 2013
Издатель (лейбл): Divebomb Records
Номер по каталогу: DIVE038
Страна исполнителя (группы): U.S.A.
Аудиокодек: FLAC (*.flac)
Тип рипа: image+.cue
Битрейт аудио: lossless
Продолжительность: 01:17:51+00:38:58
Наличие сканов в содержимом раздачи: да

CD 1

Треклист:
Terminal Reality - EP (1993)
01. Land Of Broken Promises 04:16
02. Victim Of The Game 04:21
03. Voice Of Reason 05:14
04. Remembrance 03:35
05. Who's In Control 04:18
06. Return To Nothing 03:34
Perpetual Aggravation - Demo (1990)
07. The Krusher 04:12
08. Shrouded In Darkness 05:17
09. Kill Thy Neighbor 04:52
10. Circle Of Blood 05:32
11. S.T.D. (Socially Transmitted Death) 06:11
12. Pieces Of Aggravation 02:53
Lost In Mind - Demo (1991)
13. Hypothermia 04:17
14. Lost In Mind 05:01
15. Monkey See, Monkey Do 03:07
16. Feet First 05:13
17. Wastoid 01:49
Bonus Track
18. The Krusher (Live) 03:59

Лог создания рипа

Exact Audio Copy V0.99 prebeta 5 from 4. May 2009
Отчёт EAC об извлечении, выполненном 5. июня 2014, 12:47
Raped Ape / Land Of Broken Promises (CD 1)
Дисковод: MATSHITADVD-RAM UJ8A0AS Adapter: 0 ID: 1
Режим чтения : ДостоверностьИспользование точного потока : ДаОтключение кэша аудио : ДаИспользование указателей C2 : Нет
Коррекция смещения при чтении : 102Способность читать области Lead-in и Lead-out : НетЗаполнение пропущенных сэмплов тишиной : ДаУдаление блоков с тишиной в начале и конце : НетПри вычислениях CRC использовались нулевые сэмплы : ДаИнтерфейс : Встроенный Win32-интерфейс для Win NT/2000
Выходной формат : Пользовательский кодировщикВыбранный битрейт : 1024 kBit/sКачество : ВысокийДобавление ID3-тэга : НетУтилита сжатия : C:\Program Files\Exact Audio Copy\FLAC\FLAC.EXEДополнительные параметры : -6 -V -T "ARTIST=%a" -T "TITLE=%t" -T "ALBUM=%g" -T "DATE=%y" -T "TRACKNUMBER=%n" -T "GENRE=%m" -T "COMMENT=%e" %s -o %d
TOC извлечённого CD
Трек | Старт | Длительность | Начальный сектор | Конечный сектор --------------------------------------------------------------------- 1 | 0:00.00 | 4:18.15 | 0 | 19364 2 | 4:18.15 | 4:23.64 | 19365 | 39153 3 | 8:42.04 | 5:16.50 | 39154 | 62903 4 | 13:58.54 | 3:37.32 | 62904 | 79210 5 | 17:36.11 | 4:20.25 | 79211 | 98735 6 | 21:56.36 | 3:36.21 | 98736 | 114956 7 | 25:32.57 | 4:14.72 | 114957 | 134078 8 | 29:47.54 | 5:19.51 | 134079 | 158054 9 | 35:07.30 | 4:54.66 | 158055 | 180170 10 | 40:02.21 | 5:34.36 | 180171 | 205256 11 | 45:36.57 | 6:13.68 | 205257 | 233299 12 | 51:50.50 | 2:55.15 | 233300 | 246439 13 | 54:45.65 | 4:19.69 | 246440 | 265933 14 | 59:05.59 | 5:03.50 | 265934 | 288708 15 | 64:09.34 | 3:09.42 | 288709 | 302925 16 | 67:19.01 | 5:15.59 | 302926 | 326609 17 | 72:34.60 | 1:51.64 | 326610 | 334998 18 | 74:26.49 | 3:59.20 | 334999 | 352943
Характеристики диапазона извлечения и сообщения об ошибках
Выбранный диапазон
Имя файла C:\Users\эксперт\Music\Raped Ape - Land Of Broken Promises (CD 1).wav
Пиковый уровень 100.0 % Качество диапазона 100.0 % CRC копии 8F04A251 Копирование... OK
Ошибок не произошло
AccurateRip: сводка
Трек 1 точность не определена (достоверность 1) [04C8467B], AccurateRip вернул [C359738B]Трек 2 точность не определена (достоверность 1) [29134291], AccurateRip вернул [CF02AB06]Трек 3 точность не определена (достоверность 1) [1A4EECE1], AccurateRip вернул [4C55731F]Трек 4 точность не определена (достоверность 1) [747E3B7D], AccurateRip вернул [4A15A493]Трек 5 точность не определена (достоверность 1) [E0F208E3], AccurateRip вернул [3F009966]Трек 6 точность не определена (достоверность 1) [90D87F24], AccurateRip вернул [60AE43FD]Трек 7 точность не определена (достоверность 1) [B9EE0FE6], AccurateRip вернул [04FA11E4]Трек 8 точность не определена (достоверность 1) [B31F2333], AccurateRip вернул [7D82C472]Трек 9 точность не определена (достоверность 1) [3BC47428], AccurateRip вернул [DCBECDA2]Трек 10 точность не определена (достоверность 1) [06CF441A], AccurateRip вернул [111128F9]Трек 11 точность не определена (достоверность 1) [CA1CF661], AccurateRip вернул [6ADAC72B]Трек 12 точность не определена (достоверность 1) [68595F55], AccurateRip вернул [54BC4513]Трек 13 точность не определена (достоверность 1) [95A49888], AccurateRip вернул [D4530153]Трек 14 точность не определена (достоверность 1) [40668193], AccurateRip вернул [B39B412E]Трек 15 точность не определена (достоверность 1) [DC043068], AccurateRip вернул [F4E5CB01]Трек 16 точность не определена (достоверность 1) [CA2DC44A], AccurateRip вернул [C9013713]Трек 17 точность не определена (достоверность 1) [8A6231CA], AccurateRip вернул [2894A929]Трек 18 точность не определена (достоверность 1) [2AB8B73A], AccurateRip вернул [FA60D77F]
Ни один трек не прошёл проверки на точностьВ вашей базе может быть иной вариант штамповки диска
Конец отчёта

Содержание индексной карты (.CUE)

REM GENRE "Thrash Metal"REM DATE 2013REM DISCID FC126112REM COMMENT "ExactAudioCopy v0.99pb5"PERFORMER "Raped Ape"TITLE "Land Of Broken Promises (CD 1)"FILE "Raped Ape - Land Of Broken Promises (CD 1).flac" WAVE TRACK 01 AUDIO TITLE "Land Of Broken Promises" PERFORMER "Raped Ape" FLAGS DCP INDEX 01 00:00:00 TRACK 02 AUDIO TITLE "Victim Of The Game" PERFORMER "Raped Ape" FLAGS DCP INDEX 00 04:16:15 INDEX 01 04:18:15 TRACK 03 AUDIO TITLE "Voice Of Reason " PERFORMER "Raped Ape" FLAGS DCP INDEX 00 08:40:04 INDEX 01 08:42:04 TRACK 04 AUDIO TITLE "Remembrance" PERFORMER "Raped Ape" FLAGS DCP INDEX 00 13:56:54 INDEX 01 13:58:54 TRACK 05 AUDIO TITLE "Who's In Control" PERFORMER "Raped Ape" FLAGS DCP INDEX 00 17:34:12 INDEX 01 17:36:11 TRACK 06 AUDIO TITLE "Return To Nothing" PERFORMER "Raped Ape" FLAGS DCP INDEX 00 21:54:36 INDEX 01 21:56:36 TRACK 07 AUDIO TITLE "The Krusher" PERFORMER "Raped Ape" FLAGS DCP INDEX 00 25:30:57 INDEX 01 25:32:57 TRACK 08 AUDIO TITLE "Shrouded In Darkness" PERFORMER "Raped Ape" FLAGS DCP INDEX 00 29:45:54 INDEX 01 29:47:54 TRACK 09 AUDIO TITLE "Kill Thy Neighbor" PERFORMER "Raped Ape" FLAGS DCP INDEX 00 35:05:30 INDEX 01 35:07:30 TRACK 10 AUDIO TITLE "Circle Of Blood" PERFORMER "Raped Ape" FLAGS DCP INDEX 00 40:00:21 INDEX 01 40:02:21 TRACK 11 AUDIO TITLE "S.T.D. (Socially Transmitted Death)" PERFORMER "Raped Ape" FLAGS DCP INDEX 00 45:34:57 INDEX 01 45:36:57 TRACK 12 AUDIO TITLE "Pieces Of Aggravation" PERFORMER "Raped Ape" FLAGS DCP INDEX 00 51:48:50 INDEX 01 51:50:50 TRACK 13 AUDIO TITLE "Hypothermia" PERFORMER "Raped Ape" FLAGS DCP INDEX 00 54:43:65 INDEX 01 54:45:65 TRACK 14 AUDIO TITLE "Lost In Mind" PERFORMER "Raped Ape" FLAGS DCP INDEX 00 59:03:59 INDEX 01 59:05:59 TRACK 15 AUDIO TITLE "Monkey See, Monkey Do" PERFORMER "Raped Ape" FLAGS DCP INDEX 00 64:07:34 INDEX 01 64:09:34 TRACK 16 AUDIO TITLE "Feet First" PERFORMER "Raped Ape" FLAGS DCP INDEX 00 67:17:01 INDEX 01 67:19:01 TRACK 17 AUDIO TITLE "Wastoid" PERFORMER "Raped Ape" FLAGS DCP INDEX 00 72:32:60 INDEX 01 72:34:60 TRACK 18 AUDIO TITLE "The Krusher (Live)" PERFORMER "Raped Ape" FLAGS DCP INDEX 00 74:24:49 INDEX 01 74:26:49

CD 2

Треклист:
The Stuck Demo (1994)
01. Stuck 04:06
02. Future Tense 04:08
03. Drag 04:12
04. Mass Population 02:56
Paingod - Demo (1995)
05. Paingod/Sicklife 07:59
06. Not A Moment To Spare 03:05
07. Blind Vision 02:55
08. Easy Way Out 03:26
09. Self-Made Man 03:27
10. One And The Same 02:40

Лог создания рипа

Exact Audio Copy V0.99 prebeta 5 from 4. May 2009
Отчёт EAC об извлечении, выполненном 5. июня 2014, 13:45
Raped Ape / Land Of Broken Promises (CD 2)
Дисковод: MATSHITADVD-RAM UJ8A0AS Adapter: 0 ID: 1
Режим чтения : ДостоверностьИспользование точного потока : ДаОтключение кэша аудио : ДаИспользование указателей C2 : Нет
Коррекция смещения при чтении : 102Способность читать области Lead-in и Lead-out : НетЗаполнение пропущенных сэмплов тишиной : ДаУдаление блоков с тишиной в начале и конце : НетПри вычислениях CRC использовались нулевые сэмплы : ДаИнтерфейс : Встроенный Win32-интерфейс для Win NT/2000
Выходной формат : Пользовательский кодировщикВыбранный битрейт : 1024 kBit/sКачество : ВысокийДобавление ID3-тэга : НетУтилита сжатия : C:\Program Files\Exact Audio Copy\FLAC\FLAC.EXEДополнительные параметры : -6 -V -T "ARTIST=%a" -T "TITLE=%t" -T "ALBUM=%g" -T "DATE=%y" -T "TRACKNUMBER=%n" -T "GENRE=%m" -T "COMMENT=%e" %s -o %d
TOC извлечённого CD
Трек | Старт | Длительность | Начальный сектор | Конечный сектор --------------------------------------------------------------------- 1 | 0:00.00 | 4:05.64 | 0 | 18438 2 | 4:05.64 | 4:08.59 | 18439 | 37097 3 | 8:14.48 | 4:12.00 | 37098 | 55997 4 | 12:26.48 | 2:58.23 | 55998 | 69370 5 | 15:24.71 | 7:59.27 | 69371 | 105322 6 | 23:24.23 | 3:05.53 | 105323 | 119250 7 | 26:30.01 | 2:55.65 | 119251 | 132440 8 | 29:25.66 | 3:26.72 | 132441 | 147962 9 | 32:52.63 | 3:27.21 | 147963 | 163508 10 | 36:20.09 | 2:40.48 | 163509 | 175556 11 | 41:32.57 | 33:57.25 | 186957 | 339756
Характеристики диапазона извлечения и сообщения об ошибках
Выбранный диапазон
Имя файла C:\Users\эксперт\Music\Raped Ape - Land Of Broken Promises CD II.wav
Пиковый уровень 98.8 % Качество диапазона 100.0 % CRC копии 198CDC05 Копирование... OK
Ошибок не произошло
AccurateRip: сводка
Трек 1 точность не определена (достоверность 1) [D28F37FF], AccurateRip вернул [4864C9A7]Трек 2 точность не определена (достоверность 1) [C9292C3C], AccurateRip вернул [E88DBDD6]Трек 3 точность не определена (достоверность 1) [37569213], AccurateRip вернул [7324D9A9]Трек 4 точность не определена (достоверность 1) [48C19766], AccurateRip вернул [9845110F]Трек 5 точность не определена (достоверность 1) [1ED2141B], AccurateRip вернул [4466DB35]Трек 6 точность не определена (достоверность 1) [0E6AE075], AccurateRip вернул [C4BF8808]Трек 7 точность не определена (достоверность 1) [23BD4EF9], AccurateRip вернул [433B51A7]Трек 8 точность не определена (достоверность 1) [99545B96], AccurateRip вернул [03EF012D]Трек 9 точность не определена (достоверность 1) [3CEBF3AC], AccurateRip вернул [58B3970B]Трек 10 точность не определена (достоверность 1) [DA265290], AccurateRip вернул [5E6B5DC6]
Ни один трек не прошёл проверки на точностьВ вашей базе может быть иной вариант штамповки диска
Конец отчёта

Содержание индексной карты (.CUE)

REM GENRE "Thrash Metal"REM DATE 2013REM DISCID AC11B20BREM COMMENT "ExactAudioCopy v0.99pb5"PERFORMER "Raped Ape"TITLE "Land Of Broken Promises (CD 2)"FILE "Raped Ape - Land Of Broken Promises (CD 2).flac" WAVE TRACK 01 AUDIO TITLE "Stuck" PERFORMER "Raped Ape" FLAGS DCP INDEX 01 00:00:00 TRACK 02 AUDIO TITLE "Future Tense" PERFORMER "Raped Ape" FLAGS DCP INDEX 01 04:05:64 TRACK 03 AUDIO TITLE "Drag" PERFORMER "Raped Ape" FLAGS DCP INDEX 01 08:14:48 TRACK 04 AUDIO TITLE "Mass Population" PERFORMER "Raped Ape" FLAGS DCP INDEX 01 12:26:48 TRACK 05 AUDIO TITLE "Paingod/Sicklife" PERFORMER "Raped Ape" FLAGS DCP INDEX 00 15:22:71 INDEX 01 15:24:71 TRACK 06 AUDIO TITLE "Not A Moment To Spare" PERFORMER "Raped Ape" FLAGS DCP INDEX 01 23:24:23 TRACK 07 AUDIO TITLE "Blind Vision" PERFORMER "Raped Ape" FLAGS DCP INDEX 01 26:30:01 TRACK 08 AUDIO TITLE "Easy Way Out" PERFORMER "Raped Ape" FLAGS DCP INDEX 01 29:25:66 TRACK 09 AUDIO TITLE "Self-Made Man" PERFORMER "Raped Ape" FLAGS DCP INDEX 01 32:52:63 TRACK 10 AUDIO TITLE "One And The Same" PERFORMER "Raped Ape" FLAGS DCP INDEX 01 36:20:09

Об исполнителе (группе)

http://www.metal-archives.com/bands/Raped_Ape/23621
[Профиль] [ЛС]
Показать сообщения:    

Текущее время: Сегодня 01:08

Часовой пояс: GMT



Вы не можете начинать темы
Вы не можете отвечать на сообщения
Вы не можете редактировать свои сообщения
Вы не можете удалять свои сообщения
Вы не можете голосовать в опросах
Вы не можете прикреплять файлы к сообщениям
Вы не можете скачивать файлы