(Disco) [CD] Boney M - Discography (Collector's Edition) - 2012, FLAC (image+.cue), lossless

 
Автор Сообщение

2v2w ®

Стаж: 1 год 8 месяцев

Сообщений: 10



Награды: Нет

Торрент-статистика

Создавать темы 25-Июл-2015 12:59

[Цитировать]

--Boney M - Discography (Collector's Edition)-- Жанр: Disco
Носитель: CD
Страна-производитель диска (релиза): Russia
Год издания: 2012
Издатель (лейбл): Hansa
Страна исполнителя (группы): Germany
Аудиокодек: FLAC (*.flac)
Тип рипа: image+.cue
Битрейт аудио: lossless
Продолжительность: 11:11:45
Источник (релизер): Собственные диски
Наличие сканов в содержимом раздачи: да
Треклист:

1976 Take The Heat Off Me

Издатель (лейбл): Hansa
Номер по каталогу: 27 573 OT
Продолжительность: 01:11:46
01. Daddy Cool
02. Take The Heat Off Me
03. Sunny
04. Baby Do You Wanna Bump
05. No Woman No Cry
06. Fever
07. Got A Man On My Mind
08. Lovin' Or Leavin'
09. Help! Help!
10. Got A Man On My Mind (Extended version)
11. Daddy Cool (Brass version)
12. Baby Do You Wanna Bump (Part I) [7'' Single]
13. Baby Do You Wanna Bump (Part II) [7'' Single]
14. New York City
15. Daddy Cool (Anniversary mix)

Отчёт EAC

Exact Audio Copy V0.99 prebeta 5 from 4. May 2009
Отчёт EAC об извлечении, выполненном 21. мая 2012, 21:36
Boney M. / Take The Heat Off Me (Collector's Edition)
Дисковод: PIONEER DVD-RW DVR-219L Adapter: 5 ID: 0
Режим чтения : Достоверность
Использование точного потока : Да
Отключение кэша аудио : Да
Использование указателей C2 : Нет
Коррекция смещения при чтении : 6
Способность читать области Lead-in и Lead-out : Нет
Заполнение пропущенных сэмплов тишиной : Да
Удаление блоков с тишиной в начале и конце : Нет
При вычислениях CRC использовались нулевые сэмплы : Да
Интерфейс : Встроенный Win32-интерфейс для Win NT/2000
Выходной формат : Пользовательский кодировщик
Выбранный битрейт : 1024 kBit/s
Качество : Высокий
Добавление ID3-тэга : Нет
Утилита сжатия : C:\Program Files (x86)\Exact Audio Copy\Flac\flac.exe
Дополнительные параметры : -8 -V -T "ARTIST=%a" -T "TITLE=%t" -T "ALBUM=%g" -T "DATE=%y" -T "TRACKNUMBER=%n" -T "GENRE=%m" -T "COMMENT=EAC FLAC -8" %s
TOC извлечённого CD
Трек | Старт | Длительность | Начальный сектор | Конечный сектор
---------------------------------------------------------------------
1 | 0:00.00 | 3:29.18 | 0 | 15692
2 | 3:29.18 | 4:47.47 | 15693 | 37264
3 | 8:16.65 | 4:03.53 | 37265 | 55542
4 | 12:20.43 | 6:53.57 | 55543 | 86574
5 | 19:14.25 | 4:16.57 | 86575 | 105831
6 | 23:31.07 | 4:00.73 | 105832 | 123904
7 | 27:32.05 | 3:25.20 | 123905 | 139299
8 | 30:57.25 | 4:29.62 | 139300 | 159536
9 | 35:27.12 | 6:05.48 | 159537 | 186959
10 | 41:32.60 | 5:12.52 | 186960 | 210411
11 | 46:45.37 | 5:24.28 | 210412 | 234739
12 | 52:09.65 | 3:40.25 | 234740 | 251264
13 | 55:50.15 | 3:00.13 | 251265 | 264777
14 | 58:50.28 | 3:44.39 | 264778 | 281616
15 | 62:34.67 | 9:11.62 | 281617 | 323003
Характеристики диапазона извлечения и сообщения об ошибках
Выбранный диапазон
Имя файла F:\СВОИ РЕЛИЗЫ\Boney M - Discography (Collector's Edition)\Boney M 1976 ''Take The Heat Off Me'' (Collector's Edition)\Boney M. - Take The Heat Off Me (Collector's Edition).wav
Пиковый уровень 99.6 %
Качество диапазона 100.0 %
CRC теста 0EE9AB90
CRC копии 0EE9AB90
Копирование... OK
Ошибок не произошло
AccurateRip: сводка
Трек 1 нет в базе данных
Трек 2 нет в базе данных
Трек 3 нет в базе данных
Трек 4 нет в базе данных
Трек 5 нет в базе данных
Трек 6 нет в базе данных
Трек 7 нет в базе данных
Трек 8 нет в базе данных
Трек 9 нет в базе данных
Трек 10 нет в базе данных
Трек 11 нет в базе данных
Трек 12 нет в базе данных
Трек 13 нет в базе данных
Трек 14 нет в базе данных
Трек 15 нет в базе данных
Ни одного трека нет в базе AccurateRip
Конец отчёта

Содержание индексной карты (.CUE)

REM GENRE DiscoREM DATE 2012REM DISCID CE10D20FREM COMMENT "ExactAudioCopy v0.99pb5"PERFORMER "Boney M."TITLE "Take The Heat Off Me (Collector's Edition)"FILE "Boney M. - Take The Heat Off Me (Collector's Edition).flac" WAVE TRACK 01 AUDIO TITLE "Daddy Cool" PERFORMER "Boney M." INDEX 01 00:00:00 TRACK 02 AUDIO TITLE "Take The Heat Off Me" PERFORMER "Boney M." INDEX 01 03:29:18 TRACK 03 AUDIO TITLE "Sunny" PERFORMER "Boney M." INDEX 01 08:16:65 TRACK 04 AUDIO TITLE "Baby Do You Wanna Bump" PERFORMER "Boney M." INDEX 01 12:20:43 TRACK 05 AUDIO TITLE "No Woman No Cry" PERFORMER "Boney M." INDEX 01 19:14:25 TRACK 06 AUDIO TITLE "Fever" PERFORMER "Boney M." INDEX 01 23:31:07 TRACK 07 AUDIO TITLE "Got A Man On My Mind" PERFORMER "Boney M." INDEX 01 27:32:05 TRACK 08 AUDIO TITLE "Lovin' Or Leavin'" PERFORMER "Boney M." INDEX 01 30:57:25 TRACK 09 AUDIO TITLE "Help! Help!" PERFORMER "Boney M." INDEX 01 35:27:12 TRACK 10 AUDIO TITLE "Got A Man On My Mind (Extended version)" PERFORMER "Boney M." INDEX 01 41:32:60 TRACK 11 AUDIO TITLE "Daddy Cool (Brass version)" PERFORMER "Boney M." INDEX 01 46:45:37 TRACK 12 AUDIO TITLE "Baby Do You Wanna Bump (Part I) [7'' Single]" PERFORMER "Boney M." INDEX 01 52:09:65 TRACK 13 AUDIO TITLE "Baby Do You Wanna Bump (Part II) [7'' Single]" PERFORMER "Boney M." INDEX 01 55:50:15 TRACK 14 AUDIO TITLE "New York City" PERFORMER "Boney M." INDEX 01 58:50:28 TRACK 15 AUDIO TITLE "Daddy Cool (Anniversary mix)" PERFORMER "Boney M." INDEX 01 62:34:67

1977 Love For Sale

Издатель (лейбл): Hansa
Номер по каталогу: 28 888 OT
Продолжительность: 01:19:25
01. Ma Baker
02. Love For Sale
03. Belfast
04. Have You Ever Seen The Rain
05. Gloria, Can You Waddle
06. Plantation Boy
07. Motherless Child
08. Silent Lover
09. A Woman Can Change A Man
10. Still I'm Sad
Bonus Tracks
11. Ma Baker (1st Single Version)
12. Mary's Boy Child-Oh My Lord (12'' Single)
13. Dancing In The Streets (12'' Single)
14. Mary's Boy Child-Oh My Lord (Remix)
15. Dancing In The Streets (Test Pressing)
16. Ma Baker (Remix '93)
17. Dancing In The Streets (UK 7'' Single)
18. Ma Baker (Remix 1999 By Sash)

Отчёт EAC

Exact Audio Copy V0.99 prebeta 5 from 4. May 2009
Отчёт EAC об извлечении, выполненном 22. мая 2012, 22:03
The Essential And Collectable Boney M / Love For Sale
Дисковод: PIONEER DVD-RW DVR-219L Adapter: 5 ID: 0
Режим чтения : Достоверность
Использование точного потока : Да
Отключение кэша аудио : Да
Использование указателей C2 : Нет
Коррекция смещения при чтении : 6
Способность читать области Lead-in и Lead-out : Нет
Заполнение пропущенных сэмплов тишиной : Да
Удаление блоков с тишиной в начале и конце : Нет
При вычислениях CRC использовались нулевые сэмплы : Да
Интерфейс : Встроенный Win32-интерфейс для Win NT/2000
Выходной формат : Пользовательский кодировщик
Выбранный битрейт : 1024 kBit/s
Качество : Высокий
Добавление ID3-тэга : Нет
Утилита сжатия : C:\Program Files (x86)\Exact Audio Copy\Flac\flac.exe
Дополнительные параметры : -8 -V -T "ARTIST=%a" -T "TITLE=%t" -T "ALBUM=%g" -T "DATE=%y" -T "TRACKNUMBER=%n" -T "GENRE=%m" -T "COMMENT=EAC FLAC -8" %s
TOC извлечённого CD
Трек | Старт | Длительность | Начальный сектор | Конечный сектор
---------------------------------------------------------------------
1 | 0:00.00 | 4:36.58 | 0 | 20757
2 | 4:36.58 | 4:47.15 | 20758 | 42297
3 | 9:23.73 | 3:31.02 | 42298 | 58124
4 | 12:55.00 | 2:40.23 | 58125 | 70147
5 | 15:35.23 | 3:57.52 | 70148 | 87974
6 | 19:33.00 | 4:27.10 | 87975 | 108009
7 | 24:00.10 | 4:58.43 | 108010 | 130402
8 | 28:58.53 | 4:14.17 | 130403 | 149469
9 | 33:12.70 | 3:33.18 | 149470 | 165462
10 | 36:46.13 | 4:34.52 | 165463 | 186064
11 | 41:20.65 | 4:48.21 | 186065 | 207685
12 | 46:09.11 | 6:18.74 | 207686 | 236109
13 | 52:28.10 | 6:22.50 | 236110 | 264809
14 | 58:50.60 | 4:21.68 | 264810 | 284452
15 | 63:12.53 | 3:57.19 | 284453 | 302246
16 | 67:09.72 | 4:03.10 | 302247 | 320481
17 | 71:13.07 | 3:41.47 | 320482 | 337103
18 | 74:54.54 | 4:30.26 | 337104 | 357379
Характеристики диапазона извлечения и сообщения об ошибках
Выбранный диапазон
Имя файла F:\СВОИ РЕЛИЗЫ\Boney M - Discography (Collector's Edition)\Boney M 1977 ''Love For Sale'' (Collector's Edition)\The Essential And Collectable Boney M - Love For Sale.wav
Пиковый уровень 99.0 %
Качество диапазона 100.0 %
CRC теста 7C21078B
CRC копии 7C21078B
Копирование... OK
Ошибок не произошло
AccurateRip: сводка
Трек 1 нет в базе данных
Трек 2 нет в базе данных
Трек 3 нет в базе данных
Трек 4 нет в базе данных
Трек 5 нет в базе данных
Трек 6 нет в базе данных
Трек 7 нет в базе данных
Трек 8 нет в базе данных
Трек 9 нет в базе данных
Трек 10 нет в базе данных
Трек 11 нет в базе данных
Трек 12 нет в базе данных
Трек 13 нет в базе данных
Трек 14 нет в базе данных
Трек 15 нет в базе данных
Трек 16 нет в базе данных
Трек 17 нет в базе данных
Трек 18 нет в базе данных
Ни одного трека нет в базе AccurateRip
Конец отчёта

Содержание индексной карты (.CUE)

REM GENRE PopREM DATE 2012REM DISCID 13129D12REM COMMENT "ExactAudioCopy v0.99pb5"PERFORMER "The Essential And Collectable Boney M"TITLE "Love For Sale"FILE "The Essential And Collectable Boney M - Love For Sale.flac" WAVE TRACK 01 AUDIO TITLE "Ma Baker" PERFORMER "The Essential And Collectable Boney M" INDEX 01 00:00:00 TRACK 02 AUDIO TITLE "Love For Sale" PERFORMER "The Essential And Collectable Boney M" INDEX 01 04:36:58 TRACK 03 AUDIO TITLE "Belfast" PERFORMER "The Essential And Collectable Boney M" INDEX 01 09:23:73 TRACK 04 AUDIO TITLE "Have You Ever Seen The Rain" PERFORMER "The Essential And Collectable Boney M" INDEX 01 12:55:00 TRACK 05 AUDIO TITLE "Gloria, Can You Waddle" PERFORMER "The Essential And Collectable Boney M" INDEX 01 15:35:23 TRACK 06 AUDIO TITLE "Plantation Boy" PERFORMER "The Essential And Collectable Boney M" INDEX 01 19:33:00 TRACK 07 AUDIO TITLE "Motherless Child" PERFORMER "The Essential And Collectable Boney M" INDEX 01 24:00:10 TRACK 08 AUDIO TITLE "Silent Lover" PERFORMER "The Essential And Collectable Boney M" INDEX 01 28:58:53 TRACK 09 AUDIO TITLE "A Woman Can Change A Man" PERFORMER "The Essential And Collectable Boney M" INDEX 01 33:12:70 TRACK 10 AUDIO TITLE "Still I'm Sad" PERFORMER "The Essential And Collectable Boney M" INDEX 01 36:46:13 TRACK 11 AUDIO TITLE "Ma Baker (1st Single Version) - Bonus Track" PERFORMER "The Essential And Collectable Boney M" INDEX 01 41:20:65 TRACK 12 AUDIO TITLE "Mary's Boy Child-Oh My Lord (12'' Single) - Bonus Track" PERFORMER "The Essential And Collectable Boney M" INDEX 01 46:09:11 TRACK 13 AUDIO TITLE "Dancing In The Streets (12'' Single) - Bonus Track" PERFORMER "The Essential And Collectable Boney M" INDEX 01 52:28:10 TRACK 14 AUDIO TITLE "Mary's Boy Child-Oh My Lord (Remix) - Bonus Track" PERFORMER "The Essential And Collectable Boney M" INDEX 01 58:50:60 TRACK 15 AUDIO TITLE "Dancing In The Streets (Test Pressing) - Bonus Track" PERFORMER "The Essential And Collectable Boney M" INDEX 01 63:12:53 TRACK 16 AUDIO TITLE "Ma Baker (Remix '93) - Bonus Track" PERFORMER "The Essential And Collectable Boney M" INDEX 01 67:09:72 TRACK 17 AUDIO TITLE "Dancing In The Streets (UK 7'' Single) - Bonus Track" PERFORMER "The Essential And Collectable Boney M" INDEX 01 71:13:07 TRACK 18 AUDIO TITLE "Ma Baker (Remix 1999 By Sash) - Bonus Track" PERFORMER "The Essential And Collectable Boney M" INDEX 01 74:54:54

1978 Nightflight To Venus

Издатель (лейбл): Hansa
Номер по каталогу: 26 026 OT
Продолжительность: 01:15:36
01. Nightflight \ Rasputin (1 press)
02. Painter Man
03. He Was A Steppenwolf (1 press)
04. King Of The Road
05. Rivers Of Babylon (ext)
06. Voodoonight
07. Brown Girl In The Ring (1press)
08. Never Change Lovers In The Middle Of The Night
09. Heart Of Gold
10. Rivers Of Babylon (Instrumental)
11. Nightflight \ Rasputin (2 press)
12. He Was A Steppenwolf

Отчёт EAC

Exact Audio Copy V0.99 prebeta 5 from 4. May 2009
Отчёт EAC об извлечении, выполненном 23. мая 2012, 23:00
Boney M. / Nightflight To Venus (Collector's Edition)
Дисковод: PIONEER DVD-RW DVR-219L Adapter: 5 ID: 0
Режим чтения : Достоверность
Использование точного потока : Да
Отключение кэша аудио : Да
Использование указателей C2 : Нет
Коррекция смещения при чтении : 6
Способность читать области Lead-in и Lead-out : Нет
Заполнение пропущенных сэмплов тишиной : Да
Удаление блоков с тишиной в начале и конце : Нет
При вычислениях CRC использовались нулевые сэмплы : Да
Интерфейс : Встроенный Win32-интерфейс для Win NT/2000
Выходной формат : Пользовательский кодировщик
Выбранный битрейт : 1024 kBit/s
Качество : Высокий
Добавление ID3-тэга : Нет
Утилита сжатия : C:\Program Files (x86)\Exact Audio Copy\Flac\flac.exe
Дополнительные параметры : -8 -V -T "ARTIST=%a" -T "TITLE=%t" -T "ALBUM=%g" -T "DATE=%y" -T "TRACKNUMBER=%n" -T "GENRE=%m" -T "COMMENT=EAC FLAC -8" %s
TOC извлечённого CD
Трек | Старт | Длительность | Начальный сектор | Конечный сектор
---------------------------------------------------------------------
1 | 0:00.00 | 13:47.14 | 0 | 62038
2 | 13:47.14 | 3:17.65 | 62039 | 76878
3 | 17:05.04 | 6:59.49 | 76879 | 108352
4 | 24:04.53 | 2:36.15 | 108353 | 120067
5 | 26:40.68 | 7:24.72 | 120068 | 153439
6 | 34:05.65 | 4:47.39 | 153440 | 175003
7 | 38:53.29 | 4:19.69 | 175004 | 194497
8 | 43:13.23 | 5:36.48 | 194498 | 219745
9 | 48:49.71 | 4:05.09 | 219746 | 238129
10 | 52:55.05 | 3:36.64 | 238130 | 254393
11 | 56:31.69 | 11:57.46 | 254394 | 308214
12 | 68:29.40 | 7:07.21 | 308215 | 340260
Характеристики диапазона извлечения и сообщения об ошибках
Выбранный диапазон
Имя файла F:\СВОИ РЕЛИЗЫ\Boney M - Discography (Collector's Edition)\Boney M 1978 ''Nightflight To Venus'' (Collector's Edition)\Boney M. - Nightflight To Venus (Collector's Edition).wav
Пиковый уровень 99.0 %
Качество диапазона 100.0 %
CRC теста E485BED3
CRC копии E485BED3
Копирование... OK
Ошибок не произошло
AccurateRip: сводка
Трек 1 нет в базе данных
Трек 2 нет в базе данных
Трек 3 нет в базе данных
Трек 4 нет в базе данных
Трек 5 нет в базе данных
Трек 6 нет в базе данных
Трек 7 нет в базе данных
Трек 8 нет в базе данных
Трек 9 нет в базе данных
Трек 10 нет в базе данных
Трек 11 нет в базе данных
Трек 12 нет в базе данных
Ни одного трека нет в базе AccurateRip
Конец отчёта

Содержание индексной карты (.CUE)

REM GENRE DiscoREM DATE 2012REM DISCID A011B80CREM COMMENT "ExactAudioCopy v0.99pb5"PERFORMER "Boney M."TITLE "Nightflight To Venus (Collector's Edition)"FILE "Boney M. - Nightflight To Venus (Collector's Edition).flac" WAVE TRACK 01 AUDIO TITLE "Nightflight \ Rasputin (1 press)" PERFORMER "Boney M." INDEX 01 00:00:00 TRACK 02 AUDIO TITLE "Painter Man" PERFORMER "Boney M." INDEX 01 13:47:14 TRACK 03 AUDIO TITLE "He Was A Steppenwolf (1 press)" PERFORMER "Boney M." INDEX 01 17:05:04 TRACK 04 AUDIO TITLE "King Of The Road" PERFORMER "Boney M." INDEX 01 24:04:53 TRACK 05 AUDIO TITLE "Rivers Of Babylon (ext)" PERFORMER "Boney M." INDEX 01 26:40:68 TRACK 06 AUDIO TITLE "Voodoonight" PERFORMER "Boney M." INDEX 01 34:05:65 TRACK 07 AUDIO TITLE "Brown Girl In The Ring (1press)" PERFORMER "Boney M." INDEX 01 38:53:29 TRACK 08 AUDIO TITLE "Never Change Lovers In The Middle Of The Night" PERFORMER "Boney M." INDEX 01 43:13:23 TRACK 09 AUDIO TITLE "Heart Of Gold" PERFORMER "Boney M." INDEX 01 48:49:71 TRACK 10 AUDIO TITLE "Rivers Of Babylon (Instrumental)" PERFORMER "Boney M." INDEX 01 52:55:05 TRACK 11 AUDIO TITLE "Nightflight \ Rasputin (2 press)" PERFORMER "Boney M." INDEX 01 56:31:69 TRACK 12 AUDIO TITLE "He Was A Steppenwolf" PERFORMER "Boney M." INDEX 01 68:29:40

1979 Oceans Of Fantasy

Издатель (лейбл): Hansa
Номер по каталогу: 200 888
Продолжительность: 01:07:09
01. Let It All Be Music
02. Gotta Go Home
03. Bye Bye Bluebird
04. Bahama Mama
05. Hold On I'm Coming
06. Two Of Us
07. Ribbons Of Blue
08. Oceans Of Fantasy
09. El Lute
10. No More Chain Gang
11. I'm Born Again
12. No Time To Lose
13. Calendar Song
14. Hooray! Hooray! It's A Holi Holiday

Отчёт EAC

Exact Audio Copy V0.99 prebeta 5 from 4. May 2009
Отчёт EAC об извлечении, выполненном 24. мая 2012, 22:41
Boney M. / Oceans Of Fantasy (Collector's Edition)
Дисковод: PIONEER DVD-RW DVR-219L Adapter: 5 ID: 0
Режим чтения : Достоверность
Использование точного потока : Да
Отключение кэша аудио : Да
Использование указателей C2 : Нет
Коррекция смещения при чтении : 6
Способность читать области Lead-in и Lead-out : Нет
Заполнение пропущенных сэмплов тишиной : Да
Удаление блоков с тишиной в начале и конце : Нет
При вычислениях CRC использовались нулевые сэмплы : Да
Интерфейс : Встроенный Win32-интерфейс для Win NT/2000
Выходной формат : Пользовательский кодировщик
Выбранный битрейт : 1024 kBit/s
Качество : Высокий
Добавление ID3-тэга : Нет
Утилита сжатия : C:\Program Files (x86)\Exact Audio Copy\Flac\flac.exe
Дополнительные параметры : -8 -V -T "ARTIST=%a" -T "TITLE=%t" -T "ALBUM=%g" -T "DATE=%y" -T "TRACKNUMBER=%n" -T "GENRE=%m" -T "COMMENT=EAC FLAC -8" %s
TOC извлечённого CD
Трек | Старт | Длительность | Начальный сектор | Конечный сектор
---------------------------------------------------------------------
1 | 0:00.00 | 5:31.40 | 0 | 24864
2 | 5:31.40 | 5:05.57 | 24865 | 47796
3 | 10:37.22 | 5:20.69 | 47797 | 71865
4 | 15:58.16 | 5:15.36 | 71866 | 95526
5 | 21:13.52 | 5:45.29 | 95527 | 121430
6 | 26:59.06 | 3:15.18 | 121431 | 136073
7 | 30:14.24 | 4:06.07 | 136074 | 154530
8 | 34:20.31 | 5:25.32 | 154531 | 178937
9 | 39:45.63 | 5:55.63 | 178938 | 205625
10 | 45:41.51 | 6:21.52 | 205626 | 234252
11 | 52:03.28 | 4:21.25 | 234253 | 253852
12 | 56:24.53 | 3:27.38 | 253853 | 269415
13 | 59:52.16 | 3:21.68 | 269416 | 284558
14 | 63:14.09 | 3:55.43 | 284559 | 302226
Характеристики диапазона извлечения и сообщения об ошибках
Выбранный диапазон
Имя файла F:\СВОИ РЕЛИЗЫ\Boney M - Discography (Collector's Edition 2012)\Boney M 1979 ''Oceans Of Fantasy'' (Collector's Edition)\Boney M. - Oceans Of Fantasy (Collector's Edition).wav
Пиковый уровень 99.2 %
Качество диапазона 100.0 %
CRC теста CC52D666
CRC копии CC52D666
Копирование... OK
Ошибок не произошло
AccurateRip: сводка
Трек 1 нет в базе данных
Трек 2 нет в базе данных
Трек 3 нет в базе данных
Трек 4 нет в базе данных
Трек 5 нет в базе данных
Трек 6 нет в базе данных
Трек 7 нет в базе данных
Трек 8 нет в базе данных
Трек 9 нет в базе данных
Трек 10 нет в базе данных
Трек 11 нет в базе данных
Трек 12 нет в базе данных
Трек 13 нет в базе данных
Трек 14 нет в базе данных
Ни одного трека нет в базе AccurateRip
Конец отчёта

Содержание индексной карты (.CUE)

REM GENRE DiscoREM DATE 2012REM DISCID D00FBD0EREM COMMENT "ExactAudioCopy v0.99pb5"PERFORMER "Boney M."TITLE "Oceans Of Fantasy (Collector's Edition)"FILE "Boney M. - Oceans Of Fantasy (Collector's Edition).flac" WAVE TRACK 01 AUDIO TITLE "Let It All Be Music" PERFORMER "Boney M." INDEX 01 00:00:00 TRACK 02 AUDIO TITLE "Gotta Go Home" PERFORMER "Boney M." INDEX 01 05:31:40 TRACK 03 AUDIO TITLE "Bye Bye Bluebird" PERFORMER "Boney M." INDEX 01 10:37:22 TRACK 04 AUDIO TITLE "Bahama Mama" PERFORMER "Boney M." INDEX 01 15:58:16 TRACK 05 AUDIO TITLE "Hold On I'm Coming" PERFORMER "Boney M." INDEX 01 21:13:52 TRACK 06 AUDIO TITLE "Two Of Us" PERFORMER "Boney M." INDEX 01 26:59:06 TRACK 07 AUDIO TITLE "Ribbons Of Blue" PERFORMER "Boney M." INDEX 01 30:14:24 TRACK 08 AUDIO TITLE "Oceans Of Fantasy" PERFORMER "Boney M." INDEX 01 34:20:31 TRACK 09 AUDIO TITLE "El Lute" PERFORMER "Boney M." INDEX 01 39:45:63 TRACK 10 AUDIO TITLE "No More Chain Gang" PERFORMER "Boney M." INDEX 01 45:41:51 TRACK 11 AUDIO TITLE "I'm Born Again" PERFORMER "Boney M." INDEX 01 52:03:28 TRACK 12 AUDIO TITLE "No Time To Lose" PERFORMER "Boney M." INDEX 01 56:24:53 TRACK 13 AUDIO TITLE "Calendar Song" PERFORMER "Boney M." INDEX 01 59:52:16 TRACK 14 AUDIO TITLE "Hooray! Hooray! It's A Holi Holiday" PERFORMER "Boney M." INDEX 01 63:14:09

1980 Felicidad

Издатель (лейбл): Hansa
Номер по каталогу: 102 681
Продолжительность: 01:06:37
01. Felicidad
02. Strange
03. Gadda Da Vida
04. Children Of Paradise
05. My Friend Jack (12'')
06. I See A Boat On The River
07. My Friend Jack (demo)
08. (I Beg You) Boat On The River (demo)
09. Children Of Paradise (demo)
10. My Friend Jack (7'')

Отчёт EAC

Exact Audio Copy V0.99 prebeta 5 from 4. May 2009
Отчёт EAC об извлечении, выполненном 25. мая 2012, 22:51
Boney M. / Felicidad (For Dancing) Singles (Collector's Edition)
Дисковод: PIONEER DVD-RW DVR-219L Adapter: 5 ID: 0
Режим чтения : Достоверность
Использование точного потока : Да
Отключение кэша аудио : Да
Использование указателей C2 : Нет
Коррекция смещения при чтении : 6
Способность читать области Lead-in и Lead-out : Нет
Заполнение пропущенных сэмплов тишиной : Да
Удаление блоков с тишиной в начале и конце : Нет
При вычислениях CRC использовались нулевые сэмплы : Да
Интерфейс : Встроенный Win32-интерфейс для Win NT/2000
Выходной формат : Пользовательский кодировщик
Выбранный битрейт : 1024 kBit/s
Качество : Высокий
Добавление ID3-тэга : Нет
Утилита сжатия : C:\Program Files (x86)\Exact Audio Copy\Flac\flac.exe
Дополнительные параметры : -8 -V -T "ARTIST=%a" -T "TITLE=%t" -T "ALBUM=%g" -T "DATE=%y" -T "TRACKNUMBER=%n" -T "GENRE=%m" -T "COMMENT=EAC FLAC -8" %s
TOC извлечённого CD
Трек | Старт | Длительность | Начальный сектор | Конечный сектор
---------------------------------------------------------------------
1 | 0:00.00 | 11:46.10 | 0 | 52959
2 | 11:46.10 | 3:29.74 | 52960 | 68708
3 | 15:16.09 | 8:55.71 | 68709 | 108904
4 | 24:12.05 | 8:47.08 | 108905 | 148437
5 | 32:59.13 | 8:26.00 | 148438 | 186387
6 | 41:25.13 | 6:05.54 | 186388 | 213816
7 | 47:30.67 | 4:53.59 | 213817 | 235850
8 | 52:24.51 | 4:00.17 | 235851 | 253867
9 | 56:24.68 | 5:30.59 | 253868 | 278676
10 | 61:55.52 | 4:41.29 | 278677 | 299780
Характеристики диапазона извлечения и сообщения об ошибках
Выбранный диапазон
Имя файла F:\СВОИ РЕЛИЗЫ\Boney M - Discography (Collector's Edition 2012)\Boney M 1980 ''Felicidad'' (Collector's Edition)\Boney M. - Felicidad (For Dancing) Singles (Collector's Edition).wav
Пиковый уровень 99.1 %
Качество диапазона 100.0 %
CRC теста 63F292B6
CRC копии 63F292B6
Копирование... OK
Ошибок не произошло
AccurateRip: сводка
Трек 1 нет в базе данных
Трек 2 нет в базе данных
Трек 3 нет в базе данных
Трек 4 нет в базе данных
Трек 5 нет в базе данных
Трек 6 нет в базе данных
Трек 7 нет в базе данных
Трек 8 нет в базе данных
Трек 9 нет в базе данных
Трек 10 нет в базе данных
Ни одного трека нет в базе AccurateRip
Конец отчёта

Содержание индексной карты (.CUE)

REM GENRE DiscoREM DATE 2012REM DISCID 9E0F9D0AREM COMMENT "ExactAudioCopy v0.99pb5"PERFORMER "Boney M."TITLE "Felicidad (For Dancing) Singles (Collector's Edition)"FILE "Boney M. - Felicidad (For Dancing) Singles (Collector's Edition).flac" WAVE TRACK 01 AUDIO TITLE "Felicidad" PERFORMER "Boney M." INDEX 01 00:00:00 TRACK 02 AUDIO TITLE "Strange" PERFORMER "Boney M." INDEX 01 11:46:10 TRACK 03 AUDIO TITLE "Gadda Da Vida" PERFORMER "Boney M." INDEX 01 15:16:09 TRACK 04 AUDIO TITLE "Children Of Paradise" PERFORMER "Boney M." INDEX 01 24:12:05 TRACK 05 AUDIO TITLE "My Friend Jack (12'')" PERFORMER "Boney M." INDEX 01 32:59:13 TRACK 06 AUDIO TITLE "I See A Boat On The River" PERFORMER "Boney M." INDEX 01 41:25:13 TRACK 07 AUDIO TITLE "My Friend Jack (demo)" PERFORMER "Boney M." INDEX 01 47:30:67 TRACK 08 AUDIO TITLE "(I Beg You) Boat On The River (demo)" PERFORMER "Boney M." INDEX 01 52:24:51 TRACK 09 AUDIO TITLE "Children Of Paradise (demo)" PERFORMER "Boney M." INDEX 01 56:24:68 TRACK 10 AUDIO TITLE "My Friend Jack (7'')" PERFORMER "Boney M." INDEX 01 61:55:52

1981 Boonoonoonoos

Издатель (лейбл): Hansa
Номер по каталогу: 203 888-320
Продолжительность: 01:15:53
01. Boonoonoonoos (Full)
02. Silly Confusion
03. Ride To Agadir
04. Jimmy
05. African Moon
06. We Kill The World (Don't Kill The World)
07. Ship Ahoy
08. Malaika
09. Consuella Biaz
10. Breakaway
11. Sad Movies
12. Goodbye My Friend
13. African Moon (12'')

Отчёт EAC

Exact Audio Copy V0.99 prebeta 5 from 4. May 2009
Отчёт EAC об извлечении, выполненном 28. мая 2012, 16:18
Boney M. / Boonoonoonoos (Collector's Edition)
Дисковод: PIONEER DVD-RW DVR-219L Adapter: 5 ID: 0
Режим чтения : Достоверность
Использование точного потока : Да
Отключение кэша аудио : Да
Использование указателей C2 : Нет
Коррекция смещения при чтении : 6
Способность читать области Lead-in и Lead-out : Нет
Заполнение пропущенных сэмплов тишиной : Да
Удаление блоков с тишиной в начале и конце : Нет
При вычислениях CRC использовались нулевые сэмплы : Да
Интерфейс : Встроенный Win32-интерфейс для Win NT/2000
Выходной формат : Пользовательский кодировщик
Выбранный битрейт : 1024 kBit/s
Качество : Высокий
Добавление ID3-тэга : Нет
Утилита сжатия : C:\Program Files (x86)\Exact Audio Copy\Flac\flac.exe
Дополнительные параметры : -8 -V -T "ARTIST=%a" -T "TITLE=%t" -T "ALBUM=%g" -T "DATE=%y" -T "TRACKNUMBER=%n" -T "GENRE=%m" -T "COMMENT=EAC FLAC -8" %s
TOC извлечённого CD
Трек | Старт | Длительность | Начальный сектор | Конечный сектор
---------------------------------------------------------------------
1 | 0:00.00 | 12:18.41 | 0 | 55390
2 | 12:18.41 | 6:59.45 | 55391 | 86860
3 | 19:18.11 | 5:11.21 | 86861 | 110206
4 | 24:29.32 | 4:07.09 | 110207 | 128740
5 | 28:36.41 | 4:11.07 | 128741 | 147572
6 | 32:47.48 | 7:10.67 | 147573 | 179889
7 | 39:58.40 | 5:05.68 | 179890 | 202832
8 | 45:04.33 | 5:02.27 | 202833 | 225509
9 | 50:06.60 | 5:18.64 | 225510 | 249423
10 | 55:25.49 | 4:23.38 | 249424 | 269186
11 | 59:49.12 | 3:36.11 | 269187 | 285397
12 | 63:25.23 | 5:45.20 | 285398 | 311292
13 | 69:10.43 | 6:42.72 | 311293 | 341514
Характеристики диапазона извлечения и сообщения об ошибках
Выбранный диапазон
Имя файла F:\СВОИ РЕЛИЗЫ\Boney M - Discography (Collector's Edition 2012)\Boney M 1981 ''Boonoonoonoos'' (Collector's Edition)\Boney M. - Boonoonoonoos (Collector's Edition).wav
Пиковый уровень 100.0 %
Качество диапазона 100.0 %
CRC теста A5D84F5F
CRC копии A5D84F5F
Копирование... OK
Ошибок не произошло
AccurateRip: сводка
Трек 1 нет в базе данных
Трек 2 нет в базе данных
Трек 3 нет в базе данных
Трек 4 нет в базе данных
Трек 5 нет в базе данных
Трек 6 нет в базе данных
Трек 7 нет в базе данных
Трек 8 нет в базе данных
Трек 9 нет в базе данных
Трек 10 нет в базе данных
Трек 11 нет в базе данных
Трек 12 нет в базе данных
Трек 13 нет в базе данных
Ни одного трека нет в базе AccurateRip
Конец отчёта

Содержание индексной карты (.CUE)

REM GENRE DiscoREM DATE 2012REM DISCID AB11C90DREM COMMENT "ExactAudioCopy v0.99pb5"PERFORMER "Boney M."TITLE "Boonoonoonoos (Collector's Edition)"FILE "Boney M. - Boonoonoonoos (Collector's Edition).flac" WAVE TRACK 01 AUDIO TITLE "Boonoonoonoos (Full)" PERFORMER "Boney M." INDEX 01 00:00:00 TRACK 02 AUDIO TITLE "Silly Confusion" PERFORMER "Boney M." INDEX 01 12:18:41 TRACK 03 AUDIO TITLE "Ride To Agadir" PERFORMER "Boney M." INDEX 01 19:18:11 TRACK 04 AUDIO TITLE "Jimmy" PERFORMER "Boney M." INDEX 01 24:29:32 TRACK 05 AUDIO TITLE "African Moon (2LP)" PERFORMER "Boney M." INDEX 01 28:36:41 TRACK 06 AUDIO TITLE "We Kill The World (Don't Kill The World)" PERFORMER "Boney M." INDEX 01 32:47:48 TRACK 07 AUDIO TITLE "Ship Ahoy" PERFORMER "Boney M." INDEX 01 39:58:40 TRACK 08 AUDIO TITLE "Malaika" PERFORMER "Boney M." INDEX 01 45:04:33 TRACK 09 AUDIO TITLE "Consuella Biaz" PERFORMER "Boney M." INDEX 01 50:06:60 TRACK 10 AUDIO TITLE "Breakaway" PERFORMER "Boney M." INDEX 01 55:25:49 TRACK 11 AUDIO TITLE "Sad Movies" PERFORMER "Boney M." INDEX 01 59:49:12 TRACK 12 AUDIO TITLE "Goodbye My Friend" PERFORMER "Boney M." INDEX 01 63:25:23 TRACK 13 AUDIO TITLE "African Moon (12'')" PERFORMER "Boney M." INDEX 01 69:10:43

1984 Kalimba De Luna

Издатель (лейбл): Hansa
Номер по каталогу: 106 760-100
Продолжительность: 01:18:49
01. Kalimba De Luna
02. Happy Song
03. School's Out (Instrumental)
04. The Carnival Is Over
05. Going Back West
06. (I Need A) Babysitter
07. Mother And Child Reunion (Extended)
08. Jambo - Hakuna Matata (Spanish 12')
09. Kalimba De Luna (US Club mix)
10. Going Back West (Test pressing)
11. Babysitter (Remix'92)
12. Mother And Child Reunion (Original version)
13. Kalimba De Luna (US Club mix Dub version)
14. School's Out (Vocals version)

Отчёт EAC

Exact Audio Copy V0.99 prebeta 5 from 4. May 2009
Отчёт EAC об извлечении, выполненном 28. мая 2012, 19:59
Boney M. / Kalimba De Luna (Singles & Rarities) (Collector's Edition)
Дисковод: PIONEER DVD-RW DVR-219L Adapter: 5 ID: 0
Режим чтения : Достоверность
Использование точного потока : Да
Отключение кэша аудио : Да
Использование указателей C2 : Нет
Коррекция смещения при чтении : 6
Способность читать области Lead-in и Lead-out : Нет
Заполнение пропущенных сэмплов тишиной : Да
Удаление блоков с тишиной в начале и конце : Нет
При вычислениях CRC использовались нулевые сэмплы : Да
Интерфейс : Встроенный Win32-интерфейс для Win NT/2000
Выходной формат : Пользовательский кодировщик
Выбранный битрейт : 1024 kBit/s
Качество : Высокий
Добавление ID3-тэга : Нет
Утилита сжатия : C:\Program Files (x86)\Exact Audio Copy\Flac\flac.exe
Дополнительные параметры : -8 -V -T "ARTIST=%a" -T "TITLE=%t" -T "ALBUM=%g" -T "DATE=%y" -T "TRACKNUMBER=%n" -T "GENRE=%m" -T "COMMENT=EAC FLAC -8" %s
TOC извлечённого CD
Трек | Старт | Длительность | Начальный сектор | Конечный сектор
---------------------------------------------------------------------
1 | 0:00.00 | 7:07.16 | 0 | 32040
2 | 7:07.16 | 8:11.18 | 32041 | 68883
3 | 15:18.34 | 3:04.17 | 68884 | 82700
4 | 18:22.51 | 4:53.10 | 82701 | 104685
5 | 23:15.61 | 5:11.14 | 104686 | 128024
6 | 28:27.00 | 3:31.71 | 128025 | 143920
7 | 31:58.71 | 7:49.11 | 143921 | 179106
8 | 39:48.07 | 7:45.54 | 179107 | 214035
9 | 47:33.61 | 9:41.00 | 214036 | 257610
10 | 57:14.61 | 3:49.07 | 257611 | 274792
11 | 61:03.68 | 3:50.48 | 274793 | 292090
12 | 64:54.41 | 3:59.62 | 292091 | 310077
13 | 68:54.28 | 6:35.45 | 310078 | 339747
14 | 75:29.73 | 3:19.05 | 339748 | 354677
Характеристики диапазона извлечения и сообщения об ошибках
Выбранный диапазон
Имя файла F:\СВОИ РЕЛИЗЫ\Boney M - Discography (Collector's Edition 2012)\Boney M 1984 ''Kalimba De Luna'' (Collector's Edition)\Boney M. - Kalimba De Luna (Singles & Rarities) (Collector's Edition).wav
Пиковый уровень 100.0 %
Качество диапазона 100.0 %
CRC теста CAC0FCBA
CRC копии CAC0FCBA
Копирование... OK
Ошибок не произошло
AccurateRip: сводка
Трек 1 нет в базе данных
Трек 2 нет в базе данных
Трек 3 нет в базе данных
Трек 4 нет в базе данных
Трек 5 нет в базе данных
Трек 6 нет в базе данных
Трек 7 нет в базе данных
Трек 8 нет в базе данных
Трек 9 нет в базе данных
Трек 10 нет в базе данных
Трек 11 нет в базе данных
Трек 12 нет в базе данных
Трек 13 нет в базе данных
Трек 14 нет в базе данных
Ни одного трека нет в базе AccurateRip
Конец отчёта

Содержание индексной карты (.CUE)

REM GENRE DiscoREM DATE 2012REM DISCID CE12790EREM COMMENT "ExactAudioCopy v0.99pb5"PERFORMER "Boney M."TITLE "Kalimba De Luna (Singles & Rarities) (Collector's Edition)"FILE "Boney M. - Kalimba De Luna (Singles & Rarities) (Collector's Edition).flac" WAVE TRACK 01 AUDIO TITLE "Kalimba De Luna" PERFORMER "Boney M." INDEX 01 00:00:00 TRACK 02 AUDIO TITLE "Happy Song" PERFORMER "Boney M." INDEX 01 07:07:16 TRACK 03 AUDIO TITLE "School's Out (Instrumental)" PERFORMER "Boney M." INDEX 01 15:18:34 TRACK 04 AUDIO TITLE "The Carnival Is Over" PERFORMER "Boney M." INDEX 01 18:22:51 TRACK 05 AUDIO TITLE "Going Back West" PERFORMER "Boney M." INDEX 01 23:15:61 TRACK 06 AUDIO TITLE "(I Need A) Babysitter" PERFORMER "Boney M." INDEX 01 28:27:00 TRACK 07 AUDIO TITLE "Mother And Child Reunion (Extended)" PERFORMER "Boney M." INDEX 01 31:58:71 TRACK 08 AUDIO TITLE "Jambo - Hakuna Matata (Spanish 12')" PERFORMER "Boney M." INDEX 01 39:48:07 TRACK 09 AUDIO TITLE "Kalimba De Luna (US Club mix)" PERFORMER "Boney M." INDEX 01 47:33:61 TRACK 10 AUDIO TITLE "Going Back West (Test pressing)" PERFORMER "Boney M." INDEX 01 57:14:61 TRACK 11 AUDIO TITLE "Babysitter (Remix'92)" PERFORMER "Boney M." INDEX 01 61:03:68 TRACK 12 AUDIO TITLE "Mother And Child Reunion (Original version)" PERFORMER "Boney M." INDEX 01 64:54:41 TRACK 13 AUDIO TITLE "Kalimba De Luna (US Club mix Dub version)" PERFORMER "Boney M." INDEX 01 68:54:28 TRACK 14 AUDIO TITLE "School's Out (Vocals version)" PERFORMER "Boney M." INDEX 01 75:29:73

1984 10000 Lightyears

Издатель (лейбл): Hansa
Номер по каталогу: 206 200
Продолжительность: 01:17:26
01. Exodus (Noah's Ark 2001)
02. Wild Planet
03. Future World
04. Where Did You Go
05. 10.000 Lightyears
06. I Feel Good
07. Somewhere In The World
08. Bel Ami
09. Living Like A Moviestar
10. Dizzy
11. The Alibama
12. Jimmy
13. Barbarella Fortuneteller
14. Exodus (Noah's Ark 2001) (Alternative Mix)
15. Wild Planet (Alternative Mix)
16. Future World (Alternative Mix)
17. 10000 Lightyears (Alternative Mix)
18. I Feel Good (Alternative Mix)
19. Somewhere In The World (Alternative Mix)
20. The Alibama (Alternative Mix)

Отчёт EAC

Exact Audio Copy V0.99 prebeta 5 from 4. May 2009
Отчёт EAC об извлечении, выполненном 30. мая 2012, 19:45
Boney M. / 10000 Lightyears (Collector's Edition)
Дисковод: PIONEER DVD-RW DVR-219L Adapter: 5 ID: 0
Режим чтения : Достоверность
Использование точного потока : Да
Отключение кэша аудио : Да
Использование указателей C2 : Нет
Коррекция смещения при чтении : 6
Способность читать области Lead-in и Lead-out : Нет
Заполнение пропущенных сэмплов тишиной : Да
Удаление блоков с тишиной в начале и конце : Нет
При вычислениях CRC использовались нулевые сэмплы : Да
Интерфейс : Встроенный Win32-интерфейс для Win NT/2000
Выходной формат : Пользовательский кодировщик
Выбранный битрейт : 1024 kBit/s
Качество : Высокий
Добавление ID3-тэга : Нет
Утилита сжатия : C:\Program Files (x86)\Exact Audio Copy\Flac\flac.exe
Дополнительные параметры : -8 -V -T "ARTIST=%a" -T "TITLE=%t" -T "ALBUM=%g" -T "DATE=%y" -T "TRACKNUMBER=%n" -T "GENRE=%m" -T "COMMENT=EAC FLAC -8" %s
TOC извлечённого CD
Трек | Старт | Длительность | Начальный сектор | Конечный сектор
---------------------------------------------------------------------
1 | 0:00.00 | 5:19.63 | 0 | 23987
2 | 5:19.63 | 4:04.60 | 23988 | 42347
3 | 9:24.48 | 3:53.60 | 42348 | 59882
4 | 13:18.33 | 4:10.74 | 59883 | 78706
5 | 17:29.32 | 4:33.17 | 78707 | 99198
6 | 22:02.49 | 3:05.00 | 99199 | 113073
7 | 25:07.49 | 4:39.08 | 113074 | 134006
8 | 29:46.57 | 3:11.30 | 134007 | 148361
9 | 32:58.12 | 3:05.07 | 148362 | 162243
10 | 36:03.19 | 3:50.30 | 162244 | 179523
11 | 39:53.49 | 3:12.27 | 179524 | 193950
12 | 43:06.01 | 3:02.73 | 193951 | 207673
13 | 46:08.74 | 2:54.57 | 207674 | 220780
14 | 49:03.56 | 5:16.31 | 220781 | 244511
15 | 54:20.12 | 3:23.32 | 244512 | 259768
16 | 57:43.44 | 4:05.37 | 259769 | 278180
17 | 61:49.06 | 4:13.60 | 278181 | 297215
18 | 66:02.66 | 2:13.74 | 297216 | 307264
19 | 68:16.65 | 5:04.36 | 307265 | 330100
20 | 73:21.26 | 4:05.22 | 330101 | 348497
Характеристики диапазона извлечения и сообщения об ошибках
Выбранный диапазон
Имя файла F:\СВОИ РЕЛИЗЫ\Boney M - Discography (Collector's Edition 2012)\Boney M 1984 ''Ten Thousand Lightyears'' (Collector's Edition)\Boney M. - 10000 Lightyears (Collector's Edition).wav
Пиковый уровень 99.0 %
Качество диапазона 100.0 %
CRC теста 3359D307
CRC копии 3359D307
Копирование... OK
Ошибок не произошло
AccurateRip: сводка
Трек 1 нет в базе данных
Трек 2 нет в базе данных
Трек 3 нет в базе данных
Трек 4 нет в базе данных
Трек 5 нет в базе данных
Трек 6 нет в базе данных
Трек 7 нет в базе данных
Трек 8 нет в базе данных
Трек 9 нет в базе данных
Трек 10 нет в базе данных
Трек 11 нет в базе данных
Трек 12 нет в базе данных
Трек 13 нет в базе данных
Трек 14 нет в базе данных
Трек 15 нет в базе данных
Трек 16 нет в базе данных
Трек 17 нет в базе данных
Трек 18 нет в базе данных
Трек 19 нет в базе данных
Трек 20 нет в базе данных
Ни одного трека нет в базе AccurateRip
Конец отчёта

Содержание индексной карты (.CUE)

REM GENRE DiscoREM DATE 2012REM DISCID 29122614REM COMMENT "ExactAudioCopy v0.99pb5"PERFORMER "Boney M."TITLE "10000 Lightyears (Collector's Edition)"FILE "Boney M. - 10000 Lightyears (Collector's Edition).flac" WAVE TRACK 01 AUDIO TITLE "Exodus (Noah's Ark 2001)" PERFORMER "Boney M." INDEX 01 00:00:00 TRACK 02 AUDIO TITLE "Wild Planet" PERFORMER "Boney M." INDEX 01 05:19:63 TRACK 03 AUDIO TITLE "Future World" PERFORMER "Boney M." INDEX 01 09:24:48 TRACK 04 AUDIO TITLE "Where Did You Go" PERFORMER "Boney M." INDEX 01 13:18:33 TRACK 05 AUDIO TITLE "10.000 Lightyears" PERFORMER "Boney M." INDEX 01 17:29:32 TRACK 06 AUDIO TITLE "I Feel Good" PERFORMER "Boney M." INDEX 01 22:02:49 TRACK 07 AUDIO TITLE "Somewhere In The World" PERFORMER "Boney M." INDEX 01 25:07:49 TRACK 08 AUDIO TITLE "Bel Ami" PERFORMER "Boney M." INDEX 01 29:46:57 TRACK 09 AUDIO TITLE "Living Like A Moviestar" PERFORMER "Boney M." INDEX 01 32:58:12 TRACK 10 AUDIO TITLE "Dizzy" PERFORMER "Boney M." INDEX 01 36:03:19 TRACK 11 AUDIO TITLE "The Alibama" PERFORMER "Boney M." INDEX 01 39:53:49 TRACK 12 AUDIO TITLE "Jimmy" PERFORMER "Boney M." INDEX 01 43:06:01 TRACK 13 AUDIO TITLE "Barbarella Fortuneteller" PERFORMER "Boney M." INDEX 01 46:08:74 TRACK 14 AUDIO TITLE "Exodus (Noah's Ark 2001) (Alternative Mix)" PERFORMER "Boney M." INDEX 01 49:03:56 TRACK 15 AUDIO TITLE "Wild Planet (Alternative Mix)" PERFORMER "Boney M." INDEX 01 54:20:12 TRACK 16 AUDIO TITLE "Future World (Alternative Mix)" PERFORMER "Boney M." INDEX 01 57:43:44 TRACK 17 AUDIO TITLE "10000 Lightyears (Alternative Mix)" PERFORMER "Boney M." INDEX 01 61:49:06 TRACK 18 AUDIO TITLE "I Feel Good (Alternative Mix)" PERFORMER "Boney M." INDEX 01 66:02:66 TRACK 19 AUDIO TITLE "Somewhere In The World (Alternative Mix)" PERFORMER "Boney M." INDEX 01 68:16:65 TRACK 20 AUDIO TITLE "The Alibama (Alternative Mix)" PERFORMER "Boney M." INDEX 01 73:21:26

1985 Eye Dance

Издатель (лейбл): Hansa
Номер по каталогу: 207 100-620
Продолжительность: 01:19:00
01. Young Free & Single
02. Todos Buenos (Disconet Remix)
03. Give It Up
04. Sample City (Single Edit)
05. My Cherie Amour (12'')
06. Eye Dance
07. Got Cha Loco
08. Dreadlock Holiday (Rap-Sody)
09. Chica Da Silva
10. Bang Bang Lulu (Single Edit)
11. A Flame Is A Light
12. I'm Alive
13. King Of Dancing (B.Farrell 85) Extended
14. I See You (B.Farrell 85)

Отчёт EAC

Exact Audio Copy V0.99 prebeta 5 from 4. May 2009
Отчёт EAC об извлечении, выполненном 4. июня 2012, 11:42
Boney M (Collector's Edition) / Eye Dance
Дисковод: PIONEER DVD-RW DVR-219L Adapter: 5 ID: 0
Режим чтения : Достоверность
Использование точного потока : Да
Отключение кэша аудио : Да
Использование указателей C2 : Нет
Коррекция смещения при чтении : 6
Способность читать области Lead-in и Lead-out : Нет
Заполнение пропущенных сэмплов тишиной : Да
Удаление блоков с тишиной в начале и конце : Нет
При вычислениях CRC использовались нулевые сэмплы : Да
Интерфейс : Встроенный Win32-интерфейс для Win NT/2000
Выходной формат : Пользовательский кодировщик
Выбранный битрейт : 1024 kBit/s
Качество : Высокий
Добавление ID3-тэга : Нет
Утилита сжатия : C:\Program Files (x86)\Exact Audio Copy\Flac\flac.exe
Дополнительные параметры : -8 -V -T "ARTIST=%a" -T "TITLE=%t" -T "ALBUM=%g" -T "DATE=%y" -T "TRACKNUMBER=%n" -T "GENRE=%m" -T "COMMENT=EAC FLAC -8" %s
TOC извлечённого CD
Трек | Старт | Длительность | Начальный сектор | Конечный сектор
---------------------------------------------------------------------
1 | 0:00.00 | 8:09.00 | 0 | 36674
2 | 8:09.00 | 6:34.47 | 36675 | 66271
3 | 14:43.47 | 3:59.11 | 66272 | 84207
4 | 18:42.58 | 4:21.00 | 84208 | 103782
5 | 23:03.58 | 8:57.17 | 103783 | 144074
6 | 32:01.00 | 6:57.36 | 144075 | 175385
7 | 38:58.36 | 3:35.71 | 175386 | 191581
8 | 42:34.32 | 10:50.66 | 191582 | 240397
9 | 53:25.23 | 4:34.48 | 240398 | 260995
10 | 57:59.71 | 4:00.30 | 260996 | 279025
11 | 62:00.26 | 3:52.68 | 279026 | 296493
12 | 65:53.19 | 5:13.55 | 296494 | 320023
13 | 71:06.74 | 4:31.00 | 320024 | 340348
14 | 75:37.74 | 3:36.38 | 340349 | 356586
Характеристики диапазона извлечения и сообщения об ошибках
Выбранный диапазон
Имя файла F:\СВОИ РЕЛИЗЫ\Boney M - Discography (Collector's Edition 2012)\Boney M 1985 '' Eye Dance'' (Collector's Edition)\Boney M (Collector's Edition) - Eye Dance.wav
Пиковый уровень 100.0 %
Качество диапазона 99.9 %
CRC теста C88A4A92
CRC копии C88A4A92
Копирование... OK
Ошибок не произошло
AccurateRip: сводка
Трек 1 нет в базе данных
Трек 2 нет в базе данных
Трек 3 нет в базе данных
Трек 4 нет в базе данных
Трек 5 нет в базе данных
Трек 6 нет в базе данных
Трек 7 нет в базе данных
Трек 8 нет в базе данных
Трек 9 нет в базе данных
Трек 10 нет в базе данных
Трек 11 нет в базе данных
Трек 12 нет в базе данных
Трек 13 нет в базе данных
Трек 14 нет в базе данных
Ни одного трека нет в базе AccurateRip
Конец отчёта

Содержание индексной карты (.CUE)

REM GENRE DiscoREM DATE 2012REM DISCID D112920EREM COMMENT "ExactAudioCopy v0.99pb5"PERFORMER "Boney M (Collector's Edition)"TITLE "Eye Dance"FILE "Boney M (Collector's Edition) - Eye Dance.flac" WAVE TRACK 01 AUDIO TITLE "Boney M. / Young Free & Single" PERFORMER "Boney M (Collector's Edition)" FLAGS DCP INDEX 01 00:00:00 TRACK 02 AUDIO TITLE "Boney M. / Todos Buenos (Disconet Remix)" PERFORMER "Boney M (Collector's Edition)" FLAGS DCP INDEX 00 08:08:00 INDEX 01 08:09:00 TRACK 03 AUDIO TITLE "Boney M. / Give It Up" PERFORMER "Boney M (Collector's Edition)" FLAGS DCP INDEX 00 14:42:47 INDEX 01 14:43:47 TRACK 04 AUDIO TITLE "Boney M. / Sample City (Single Edit)" PERFORMER "Boney M (Collector's Edition)" FLAGS DCP INDEX 00 18:41:58 INDEX 01 18:42:58 TRACK 05 AUDIO TITLE "Boney M. / My Cherie Amour (12'')" PERFORMER "Boney M (Collector's Edition)" FLAGS DCP INDEX 00 23:02:58 INDEX 01 23:03:58 TRACK 06 AUDIO TITLE "Boney M. / Eye Dance" PERFORMER "Boney M (Collector's Edition)" FLAGS DCP INDEX 00 32:00:00 INDEX 01 32:01:00 TRACK 07 AUDIO TITLE "Boney M. / Got Cha Loco" PERFORMER "Boney M (Collector's Edition)" FLAGS DCP INDEX 00 38:57:36 INDEX 01 38:58:36 TRACK 08 AUDIO TITLE "Boney M. / Dreadlock Holiday (Rap-Sody)" PERFORMER "Boney M (Collector's Edition)" FLAGS DCP INDEX 00 42:33:32 INDEX 01 42:34:32 TRACK 09 AUDIO TITLE "Boney M. / Chica Da Silva" PERFORMER "Boney M (Collector's Edition)" FLAGS DCP INDEX 00 53:24:23 INDEX 01 53:25:23 TRACK 10 AUDIO TITLE "Boney M. / Bang Bang Lulu (Single Edit)" PERFORMER "Boney M (Collector's Edition)" FLAGS DCP INDEX 00 57:58:71 INDEX 01 57:59:71 TRACK 11 AUDIO TITLE "Boney M. / A Flame Is A Light" PERFORMER "Boney M (Collector's Edition)" FLAGS DCP INDEX 00 61:59:26 INDEX 01 62:00:26 TRACK 12 AUDIO TITLE "Boney M. / I'm Alive" PERFORMER "Boney M (Collector's Edition)" FLAGS DCP INDEX 00 65:52:19 INDEX 01 65:53:19 TRACK 13 AUDIO TITLE "Boney M. / King Of Dancing (B.Farrell 85) Extended" PERFORMER "Boney M (Collector's Edition)" FLAGS DCP INDEX 00 71:05:74 INDEX 01 71:06:74 TRACK 14 AUDIO TITLE "Boney M. / I See You (B.Farrell 85)" PERFORMER "Boney M (Collector's Edition)" FLAGS DCP INDEX 00 75:36:74 INDEX 01 75:37:74
[Профиль] [ЛС]

Создавать темы 13-Авг-2015 11:43 (спустя 18 дней)

Топик был перенесен из форума Дискографии (Зарубежные) в форум Technopop, Eurodance, Disco
sergej644
 
Кто просматривает тему:

Показать сообщения:    

Текущее время: Сегодня 08:00

Часовой пояс: GMT



Вы не можете начинать темы
Вы не можете отвечать на сообщения
Вы не можете редактировать свои сообщения
Вы не можете удалять свои сообщения
Вы не можете голосовать в опросах
Вы не можете прикреплять файлы к сообщениям
Вы не можете скачивать файлы