2012 / 2012 (Роланд Эммерих / Roland Emmerich) [2009, США, фантастика, боевик, приключения, BDRip] Dub + Sub (Rus)

 
Автор Сообщение

reversefile ®

Пол:

Стаж: 4 года 5 месяцев

Сообщений: 842

Откуда: ReverseFile.org



Награды: Нет

Торрент-статистика

Создавать темы 13-Авг-2014 10:09

[Цитировать]

2012 / 2012«Узнай правду... если сможешь!»- Страна: США
Жанр: фантастика, боевик, приключения
Год выпуска: 2009
Продолжительность: 02:37:49-Перевод: Профессиональный (полное дублирование)
Cубтитры: Русские (надписи и пр.) (*.srt) - внешние-Режиссер: Роланд Эммерих / Roland Emmerich
В ролях: Джон Кьюсак, Вуди Харрельсон, Тэнди Ньютон, Чиветел Иджиофор, Златко Бурич, Дэнни Гловер, Аманда Пит, Оливер Платт, Томас МакКарти, Хенри О, Рон Селмур, Райан МакДоналд, Патрик Бошо, Лайэм Джеймс, Блу Манкума, Джими Мистри, Йоханн Урб-Описание: Согласно календарю индейцев Майя, в 2012 году планеты солнечной системы окажутся на одной линии друг с другом, что приведет к глобальным природным катаклизмам: сильнейшие землетрясения, цунами и извержения вулканов превратят страны и целые континенты в руины. Недавно ученые подтвердили, что этот миф может стать реальностью.-imdb.com: 5.80 (208 942)
kinopoisk.ru: 6.995 (102 900)
Download sample-Качество видео: BDRip | исх. 2012.2009.BD.Remux.1080p.h264.Rus.Eng.Commentary.mkv
Формат видео: AVI-Видео: 720x304 (2.37:1), 23.976 fps, XviD build 73 ~1126 kbps avg, 0.21 bit/pixel
Аудио: 48 kHz, AC3 Dolby Digital, 2/0 (L,R) ch, ~192 kbps | Профессиональный (полное дублирование)-

MediaInfo


General
Complete name : D:\Фильмы\Рипы\2012.2009.BDRip.1.45.Gb.by Fredd Kruger\2012.2009.BDRip.1.45.Gb.by Fredd Kruger.avi
Format : AVI
Format/Info : Audio Video Interleave
File size : 1.46 GiB
Duration : 2h 37mn
Overall bit rate : 1 328 Kbps
Writing application : VirtualDubMod 1.5.10.3 | www.virtualdub-fr.org || (build 2550/release)
Writing library : VirtualDubMod build 2550/release
Video
ID : 0
Format : MPEG-4 Visual
Format profile : Advanced Simple@L5
Format settings, BVOP : 1
Format settings, QPel : No
Format settings, GMC : No warppoints
Format settings, Matrix : Custom
Codec ID : XVID
Codec ID/Hint : XviD
Duration : 2h 37mn
Bit rate : 1 126 Kbps
Width : 720 pixels
Height : 304 pixels
Display aspect ratio : 2.35:1
Frame rate : 23.976 fps
Color space : YUV
Chroma subsampling : 4:2:0
Bit depth : 8 bits
Scan type : Progressive
Compression mode : Lossy
Bits/(Pixel*Frame) : 0.215
Stream size : 1.24 GiB (85%)
Writing library : XviD 73
Audio
ID : 1
Format : AC-3
Format/Info : Audio Coding 3
Mode extension : CM (complete main)
Format settings, Endianness : Big
Codec ID : 2000
Duration : 2h 37mn
Bit rate mode : Constant
Bit rate : 192 Kbps
Channel count : 2 channels
Channel positions : Front: L R
Sampling rate : 48.0 KHz
Bit depth : 16 bits
Compression mode : Lossy
Stream size : 217 MiB (14%)
Alignment : Split accross interleaves
Interleave, duration : 42 ms (1.00 video frame)
Interleave, preload duration : 500 ms

Скриншоты

--
[Профиль] [ЛС]

Создавать темы 06-Авг-2015 23:18 (спустя 11 месяцев 24 дня)

Топик был перенесен из форума Фильмы до 2014 года в форум Фильмы до 2012 года
sergej644
 

Создавать темы 12-Июн-2016 08:13 (спустя 1 год 9 месяцев)

Топик был перенесен из форума Фильмы 2011 года в форум Фильмы 2009 года
Russian Mafia
 
Показать сообщения:    

Текущее время: Сегодня 16:35

Часовой пояс: GMT



Вы не можете начинать темы
Вы не можете отвечать на сообщения
Вы не можете редактировать свои сообщения
Вы не можете удалять свои сообщения
Вы не можете голосовать в опросах
Вы не можете прикреплять файлы к сообщениям
Вы не можете скачивать файлы