(Pop, Synth Pop) [CD] Silent Circle - No. 1(Anniversary Edition) - 2011, FLAC (tracks+.cue), lossless

 
Автор Сообщение

2v2w ®

Стаж: 1 год 8 месяцев

Сообщений: 10



Награды: Нет

Торрент-статистика

Создавать темы 18-Авг-2015 09:03

[Цитировать]

Silent Circle / No. 1(Anniversary Edition)
Жанр: Pop, Synth Pop
Носитель: CD
Страна-производитель диска (релиза): Germany
Год издания: 2011
Издатель (лейбл): Monopol Records
Номер по каталогу: 941033 | M 5390
Аудиокодек: FLAC (*.flac)
Тип рипа: tracks+.cue
Битрейт аудио: lossless
Продолжительность: 01:14:56
Источник (релизер): собственный рип
Наличие сканов в содержимом раздачи: да
Треклист:
01. Touch In The Night
02. Sib Dub Dua
03. Dreams
04. Hide Away - Man Is Comin'!
05. Shy Girl
06. Stop The Rain In The Night
07. For You
08. Give Me Time
09. Moonlight Affair
10. Anywhere Tonight
11. Love Is Just A Word
Bonus Track:
12. Oh, Don't Lose Your Heart Tonight (Radio Version)
13. Touch In The Night (Radio Version)
14. Stop The Rain In The Night (No Rain Mix)
15. Love Is Just A Word (Reggae Version)
16. Danger Danger (Racing Mix)
17. Oh, Don't Lose Your Heart Tonight (Maxi Version)
18. Time For Love (Super Action Mix)

Лог создания рипа

Exact Audio Copy V1.0 beta 3 from 29. August 2011
EAC extraction logfile from 17. October 2014, 13:29
Silent Circle / No1 (Anniversary Edition)
Used drive : HL-DT-STDVDRAM GSA-T10N Adapter: 0 ID: 0
Read mode : SecureUtilize accurate stream : YesDefeat audio cache : YesMake use of C2 pointers : No
Read offset correction : 667Overread into Lead-In and Lead-Out : NoFill up missing offset samples with silence : YesDelete leading and trailing silent blocks : NoNull samples used in CRC calculations : YesUsed interface : Installed external ASPI interfaceGap handling : Appended to previous track
Used output format : User Defined EncoderSelected bitrate : 1024 kBit/sQuality : HighAdd ID3 tag : NoCommand line compressor : D:\Program Files\Foobar2000\encoders\flac.exeAdditional command line options : -V -8 -T "Date=%year%" -T "Genre=%genre%" %source%
TOC of the extracted CD
Track | Start | Length | Start sector | End sector --------------------------------------------------------- 1 | 0:00.00 | 5:19.61 | 0 | 23985 2 | 5:19.61 | 3:05.56 | 23986 | 37916 3 | 8:25.42 | 4:02.31 | 37917 | 56097 4 | 12:27.73 | 3:44.19 | 56098 | 72916 5 | 16:12.17 | 3:37.12 | 72917 | 89203 6 | 19:49.29 | 3:38.64 | 89204 | 105617 7 | 23:28.18 | 1:32.58 | 105618 | 112575 8 | 25:01.01 | 3:56.15 | 112576 | 130290 9 | 28:57.16 | 3:26.50 | 130291 | 145790 10 | 32:23.66 | 3:20.50 | 145791 | 160840 11 | 35:44.41 | 3:19.18 | 160841 | 175783 12 | 39:03.59 | 3:30.37 | 175784 | 191570 13 | 42:34.21 | 3:43.05 | 191571 | 208300 14 | 46:17.26 | 5:37.45 | 208301 | 233620 15 | 51:54.71 | 5:44.15 | 233621 | 259435 16 | 57:39.11 | 6:00.71 | 259436 | 286506 17 | 63:40.07 | 5:52.25 | 286507 | 312931 18 | 69:32.32 | 5:23.73 | 312932 | 337229
Track 1
Filename D:\Desktop - копия\Silent Circle – No. 1 (Anniversary Edition) (2011)\01. Touch In The Night.wav
Pre-gap length 0:00:02.00
Peak level 92.5 % Extraction speed 2.6 X Track quality 100.0 % Test CRC 0D4C4640 Copy CRC 0D4C4640 Accurately ripped (confidence 4) [0185B3F9] (AR v2) Copy OK
Track 2
Filename D:\Desktop - копия\Silent Circle – No. 1 (Anniversary Edition) (2011)\02. Sib Dub Dua.wav
Pre-gap length 0:00:02.00
Peak level 98.8 % Extraction speed 2.6 X Track quality 100.0 % Test CRC 78D19CFC Copy CRC 78D19CFC Accurately ripped (confidence 3) [C961090D] (AR v2) Copy OK
Track 3
Filename D:\Desktop - копия\Silent Circle – No. 1 (Anniversary Edition) (2011)\03. Dreams.wav
Pre-gap length 0:00:02.00
Peak level 98.8 % Extraction speed 2.9 X Track quality 100.0 % Test CRC B0E0F34A Copy CRC B0E0F34A Accurately ripped (confidence 3) [668F8C5A] (AR v2) Copy OK
Track 4
Filename D:\Desktop - копия\Silent Circle – No. 1 (Anniversary Edition) (2011)\04. Hide Away - Man Is Comin'!.wav
Pre-gap length 0:00:02.00
Peak level 98.8 % Extraction speed 3.0 X Track quality 100.0 % Test CRC BFEED764 Copy CRC BFEED764 Accurately ripped (confidence 3) [946B537A] (AR v2) Copy OK
Track 5
Filename D:\Desktop - копия\Silent Circle – No. 1 (Anniversary Edition) (2011)\05. Shy Girl.wav
Pre-gap length 0:00:02.00
Peak level 98.8 % Extraction speed 3.2 X Track quality 100.0 % Test CRC 3E5656F7 Copy CRC 3E5656F7 Accurately ripped (confidence 3) [75502F2D] (AR v2) Copy OK
Track 6
Filename D:\Desktop - копия\Silent Circle – No. 1 (Anniversary Edition) (2011)\06. Stop The Rain In The Night.wav
Pre-gap length 0:00:02.00
Peak level 98.8 % Extraction speed 3.4 X Track quality 100.0 % Test CRC DD792759 Copy CRC DD792759 Accurately ripped (confidence 3) [D9EA02A0] (AR v2) Copy OK
Track 7
Filename D:\Desktop - копия\Silent Circle – No. 1 (Anniversary Edition) (2011)\07. For You.wav
Pre-gap length 0:00:02.00
Peak level 98.9 % Extraction speed 2.9 X Track quality 100.0 % Test CRC 185CB2DE Copy CRC 185CB2DE Accurately ripped (confidence 3) [CCD4198B] (AR v2) Copy OK
Track 8
Filename D:\Desktop - копия\Silent Circle – No. 1 (Anniversary Edition) (2011)\08. Give Me Time.wav
Pre-gap length 0:00:00.10
Peak level 98.8 % Extraction speed 3.6 X Track quality 100.0 % Test CRC 4BD50E80 Copy CRC 4BD50E80 Accurately ripped (confidence 3) [ECF8BCF5] (AR v2) Copy OK
Track 9
Filename D:\Desktop - копия\Silent Circle – No. 1 (Anniversary Edition) (2011)\09. Moonlight Affair.wav
Pre-gap length 0:00:01.74
Peak level 98.8 % Extraction speed 3.5 X Track quality 100.0 % Test CRC 7EB62618 Copy CRC 7EB62618 Accurately ripped (confidence 3) [58F68683] (AR v2) Copy OK
Track 10
Filename D:\Desktop - копия\Silent Circle – No. 1 (Anniversary Edition) (2011)\10. Anywhere Tonight.wav
Pre-gap length 0:00:01.74
Peak level 98.0 % Extraction speed 3.8 X Track quality 100.0 % Test CRC 64E451D7 Copy CRC 64E451D7 Accurately ripped (confidence 3) [8B414B42] (AR v2) Copy OK
Track 11
Filename D:\Desktop - копия\Silent Circle – No. 1 (Anniversary Edition) (2011)\11. Love Is Just A Word.wav
Pre-gap length 0:00:01.74
Peak level 98.8 % Extraction speed 3.8 X Track quality 100.0 % Test CRC 84C69357 Copy CRC 84C69357 Accurately ripped (confidence 3) [29643645] (AR v2) Copy OK
Track 12
Filename D:\Desktop - копия\Silent Circle – No. 1 (Anniversary Edition) (2011)\12. Oh, Don't Lose Your Heart Tonight (Radio Version).wav
Pre-gap length 0:00:01.74
Peak level 98.8 % Extraction speed 3.5 X Track quality 99.9 % Test CRC 65A33AFB Copy CRC 65A33AFB Accurately ripped (confidence 3) [8B95946D] (AR v2) Copy OK
Track 13
Filename D:\Desktop - копия\Silent Circle – No. 1 (Anniversary Edition) (2011)\13. Touch In The Night (Radio Version).wav
Pre-gap length 0:00:01.74
Peak level 98.8 % Extraction speed 3.5 X Track quality 99.9 % Test CRC F8514C31 Copy CRC F8514C31 Accurately ripped (confidence 4) [290CAD41] (AR v2) Copy OK
Track 14
Filename D:\Desktop - копия\Silent Circle – No. 1 (Anniversary Edition) (2011)\14. Stop The Rain In The Night (No Rain Mix).wav
Pre-gap length 0:00:01.74
Peak level 98.8 % Extraction speed 4.4 X Track quality 100.0 % Test CRC F3F9A0E3 Copy CRC F3F9A0E3 Accurately ripped (confidence 3) [E56250B9] (AR v2) Copy OK
Track 15
Filename D:\Desktop - копия\Silent Circle – No. 1 (Anniversary Edition) (2011)\15. Love Is Just A Word (Reggae Version).wav
Pre-gap length 0:00:01.74
Peak level 98.8 % Extraction speed 4.7 X Track quality 100.0 % Test CRC 0A2BA2E5 Copy CRC 0A2BA2E5 Accurately ripped (confidence 3) [AD57E92E] (AR v2) Copy OK
Track 16
Filename D:\Desktop - копия\Silent Circle – No. 1 (Anniversary Edition) (2011)\16. Danger Danger (Racing Mix).wav
Pre-gap length 0:00:01.74
Peak level 98.8 % Extraction speed 4.9 X Track quality 100.0 % Test CRC 53C9D894 Copy CRC 53C9D894 Accurately ripped (confidence 3) [8BA42A7F] (AR v2) Copy OK
Track 17
Filename D:\Desktop - копия\Silent Circle – No. 1 (Anniversary Edition) (2011)\17. Oh, Don't Lose Your Heart Tonight (Maxi Version).wav
Pre-gap length 0:00:01.74
Peak level 98.8 % Extraction speed 5.1 X Track quality 100.0 % Test CRC 8582B016 Copy CRC 8582B016 Accurately ripped (confidence 3) [42ABDBD7] (AR v2) Copy OK
Track 18
Filename D:\Desktop - копия\Silent Circle – No. 1 (Anniversary Edition) (2011)\18. Time For Love (Super Action Mix).wav
Pre-gap length 0:00:01.74
Peak level 98.8 % Extraction speed 5.1 X Track quality 100.0 % Test CRC 96AFE0C5 Copy CRC 96AFE0C5 Accurately ripped (confidence 3) [CB7A20C3] (AR v2) Copy OK
All tracks accurately ripped
No errors occurred
End of status report
==== Log checksum 2CC3D27D4DC26AF581CE607CD6BA5F656BBC8E1D1BA53AFCF9F8E9058A964ADA ====

Содержание индексной карты (.CUE)

REM GENRE "Europop, Synth-pop"REM DATE 2011REM DISCID FC119012REM COMMENT "ExactAudioCopy v1.0b3"PERFORMER "Silent Circle"TITLE "No1 (Anniversary Edition)"FILE "01. Touch In The Night.wav" WAVE TRACK 01 AUDIO TITLE "Touch In The Night" PERFORMER "Silent Circle" INDEX 01 00:00:00 TRACK 02 AUDIO TITLE "Sib Dub Dua" PERFORMER "Silent Circle" INDEX 00 05:17:61FILE "02. Sib Dub Dua.wav" WAVE INDEX 01 00:00:00 TRACK 03 AUDIO TITLE "Dreams" PERFORMER "Silent Circle" INDEX 00 03:03:56FILE "03. Dreams.wav" WAVE INDEX 01 00:00:00 TRACK 04 AUDIO TITLE "Hide Away - Man Is Comin'!" PERFORMER "Silent Circle" INDEX 00 04:00:31FILE "04. Hide Away - Man Is Comin'!.wav" WAVE INDEX 01 00:00:00 TRACK 05 AUDIO TITLE "Shy Girl" PERFORMER "Silent Circle" INDEX 00 03:42:19FILE "05. Shy Girl.wav" WAVE INDEX 01 00:00:00 TRACK 06 AUDIO TITLE "Stop The Rain In The Night" PERFORMER "Silent Circle" INDEX 00 03:35:12FILE "06. Stop The Rain In The Night.wav" WAVE INDEX 01 00:00:00 TRACK 07 AUDIO TITLE "For You" PERFORMER "Silent Circle" INDEX 00 03:36:64FILE "07. For You.wav" WAVE INDEX 01 00:00:00 TRACK 08 AUDIO TITLE "Give Me Time" PERFORMER "Silent Circle" INDEX 00 01:32:48FILE "08. Give Me Time.wav" WAVE INDEX 01 00:00:00 TRACK 09 AUDIO TITLE "Moonlight Affair" PERFORMER "Silent Circle" INDEX 00 03:54:16FILE "09. Moonlight Affair.wav" WAVE INDEX 01 00:00:00 TRACK 10 AUDIO TITLE "Anywhere Tonight" PERFORMER "Silent Circle" INDEX 00 03:24:51FILE "10. Anywhere Tonight.wav" WAVE INDEX 01 00:00:00 TRACK 11 AUDIO TITLE "Love Is Just A Word" PERFORMER "Silent Circle" INDEX 00 03:18:51FILE "11. Love Is Just A Word.wav" WAVE INDEX 01 00:00:00 TRACK 12 AUDIO TITLE "Oh, Don't Lose Your Heart Tonight (Radio Version)" PERFORMER "Silent Circle" INDEX 00 03:17:19FILE "12. Oh, Don't Lose Your Heart Tonight (Radio Version).wav" WAVE INDEX 01 00:00:00 TRACK 13 AUDIO TITLE "Touch In The Night (Radio Version)" PERFORMER "Silent Circle" INDEX 00 03:28:38FILE "13. Touch In The Night (Radio Version).wav" WAVE INDEX 01 00:00:00 TRACK 14 AUDIO TITLE "Stop The Rain In The Night (No Rain Mix)" PERFORMER "Silent Circle" INDEX 00 03:41:06FILE "14. Stop The Rain In The Night (No Rain Mix).wav" WAVE INDEX 01 00:00:00 TRACK 15 AUDIO TITLE "Love Is Just A Word (Reggae Version)" PERFORMER "Silent Circle" INDEX 00 05:35:46FILE "15. Love Is Just A Word (Reggae Version).wav" WAVE INDEX 01 00:00:00 TRACK 16 AUDIO TITLE "Danger Danger (Racing Mix)" PERFORMER "Silent Circle" INDEX 00 05:42:16FILE "16. Danger Danger (Racing Mix).wav" WAVE INDEX 01 00:00:00 TRACK 17 AUDIO TITLE "Oh, Don't Lose Your Heart Tonight (Maxi Version)" PERFORMER "Silent Circle" INDEX 00 05:58:72FILE "17. Oh, Don't Lose Your Heart Tonight (Maxi Version).wav" WAVE INDEX 01 00:00:00 TRACK 18 AUDIO TITLE "Time For Love (Super Action Mix)" PERFORMER "Silent Circle" INDEX 00 05:50:26FILE "18. Time For Love (Super Action Mix).wav" WAVE INDEX 01 00:00:00
http://www.discogs.com/Silent-Circle--1/release/3132297
[Профиль] [ЛС]
Показать сообщения:    

Текущее время: Сегодня 06:07

Часовой пояс: GMT



Вы не можете начинать темы
Вы не можете отвечать на сообщения
Вы не можете редактировать свои сообщения
Вы не можете удалять свои сообщения
Вы не можете голосовать в опросах
Вы не можете прикреплять файлы к сообщениям
Вы не можете скачивать файлы