(Syntpop) [CD] Технология - Дискография (18 CD) - 1993-2011, FLAC (image+.cue), lossless

 
Автор Сообщение

sergej644 ®

Пол:

Стаж: 4 года 11 месяцев

Сообщений: 6046

Откуда: Soviet Union



Награды: Нет

Торрент-статистика

Создавать темы 30-Май-2015 19:58

[Цитировать]

Технология - Дискография (18 CD)

Жанр: Synthpop
Носитель: CD
Страны-производители дисков: Россия, Germany
Годы издания: 1993-2011
Издатели (лейблы): Various
Страна группы: Россия
Аудиокодек: FLAC (*.flac)
Тип рипа: image+.cue, кроме "Латекс (E.P.)" - tracks+.cue
Продолжительность: 16:16:54
Битрейт аудио: lossless
Источник: KhabtrackerDV
Наличие сканов в содержимом раздачи: да

CD 01 - 1993 - Рано или поздно (00:45:01)

Треклист
01. Первый Полет [05:51]
02. Сегодня Ночью [04:59]
03. Рано Или Поздно [05:55]
04. Черный День [05:05]
05. Сигнал [03:28]
06. Песня Обо Всем [03:58]
07. Ядерный Джаз [03:40]
08. Имитатор [03:50]
09. В Память О Тебе [04:49]
10. Последний Вопрос [03:22]

Содержание индексной карты (.CUE)

REM GENRE SynthpopREM DATE 1993REM DISCID 660A8D0AREM COMMENT "ExactAudioCopy v0.99pb5"PERFORMER "Технология"TITLE "Рано или поздно"FILE "Технология - Рано или поздно.flac" WAVE TRACK 01 AUDIO TITLE "Первый полёт" PERFORMER "Технология" INDEX 01 00:00:00 TRACK 02 AUDIO TITLE "Сегодня ночью" PERFORMER "Технология" INDEX 00 05:49:00 INDEX 01 05:51:07 TRACK 03 AUDIO TITLE "Рано или поздно" PERFORMER "Технология" INDEX 00 10:49:00 INDEX 01 10:50:62 TRACK 04 AUDIO TITLE "Чёрный день" PERFORMER "Технология" INDEX 00 16:45:00 INDEX 01 16:46:60 TRACK 05 AUDIO TITLE "Сигнал" PERFORMER "Технология" INDEX 00 21:51:00 INDEX 01 21:52:00 TRACK 06 AUDIO TITLE "Песня обо всём" PERFORMER "Технология" INDEX 00 25:20:00 INDEX 01 25:20:62 TRACK 07 AUDIO TITLE "Ядерный джаз" PERFORMER "Технология" INDEX 00 29:18:00 INDEX 01 29:19:25 TRACK 08 AUDIO TITLE "Имитатор" PERFORMER "Технология" INDEX 00 32:58:00 INDEX 01 32:59:25 TRACK 09 AUDIO TITLE "В память о тебе" PERFORMER "Технология" INDEX 00 36:48:00 INDEX 01 36:49:60 TRACK 10 AUDIO TITLE "Последний вопрос" PERFORMER "Технология" INDEX 00 41:38:00 INDEX 01 41:39:20

Лог auCDtect Task Manager

-----------------------
DON'T MODIFY THIS FILE
-----------------------
PERFORMER: auCDtect Task Manager, ver. 1.6.0 RC1 build 1.6.0.1Copyright (c) 2008-2010 y-soft. All rights reservedhttp://y-soft.org
ANALYZER: auCDtect: CD records authenticity detector, version 0.8.2Copyright (c) 2004 Oleg Berngardt. All rights reserved.Copyright (c) 2004 Alexander Djourik. All rights reserved.
FILE: Технология - Рано Или Поздно.flac Size: 298004429 Hash: 11C5AC938A1433EE7321A81E15B0BC1B Accuracy: -m0 Conclusion: CDDA 100% Signature: F80A2F7B8BBF92D6BEB97E7B10A07F949F5462EE

CD 02 - 1994 - Нажми на кнопку (переиздание) (01:09:26)

Треклист
01. Нажми на кнопку [04:35]
02. Все, что ты хочешь [03:54]
03. Странные танцы [04:57]
04. Холодный след [04:46]
05. См - 112 [02:30]
06. Один [04:45]
07. Set Me Free [02:55]
08. Песни ни о чем [04:19]
09. Шутник [05:01]
10. Полчаса [03:27]
11. Шутник (house-mix) [06:25]
12. Холодный след (16'-mix) [04:38]
13. Полчаса (new-mix) [04:56]
14. Песни ни о чем (house-mix) [07:32]
15. Информация [04:39]

Содержание индексной карты (.CUE)

REM GENRE ElectronicREM DATE 1994REM DISCID E210460FREM COMMENT "ExactAudioCopy v1.0b4"PERFORMER "Технология"TITLE "Нажми на кнопку"FILE "Технология - Нажми на кнопку.flac" WAVE TRACK 01 AUDIO TITLE "Нажми на кнопку" PERFORMER "Технология" INDEX 01 00:00:00 TRACK 02 AUDIO TITLE "Все, что ты хочешь" PERFORMER "Технология" INDEX 00 04:32:37 INDEX 01 04:35:00 TRACK 03 AUDIO TITLE "Странные танцы" PERFORMER "Технология" INDEX 00 08:25:40 INDEX 01 08:29:37 TRACK 04 AUDIO TITLE "Холодный след" PERFORMER "Технология" INDEX 00 13:24:50 INDEX 01 13:27:35 TRACK 05 AUDIO TITLE "См - 112" PERFORMER "Технология" INDEX 00 18:11:12 INDEX 01 18:13:50 TRACK 06 AUDIO TITLE "Один" PERFORMER "Технология" INDEX 00 20:41:22 INDEX 01 20:44:25 TRACK 07 AUDIO TITLE "Set Me Free" PERFORMER "Технология" INDEX 00 25:27:10 INDEX 01 25:30:07 TRACK 08 AUDIO TITLE "Песни ни о чем" PERFORMER "Технология" INDEX 00 28:23:67 INDEX 01 28:26:02 TRACK 09 AUDIO TITLE "Шутник" PERFORMER "Технология" INDEX 00 32:42:12 INDEX 01 32:45:20 TRACK 10 AUDIO TITLE "Полчаса" PERFORMER "Технология" INDEX 00 37:43:00 INDEX 01 37:46:70 TRACK 11 AUDIO TITLE "Шутник (house-mix)" PERFORMER "Технология" INDEX 00 41:11:25 INDEX 01 41:14:25 TRACK 12 AUDIO TITLE "Холодный след (16'-mix)" PERFORMER "Технология" INDEX 00 47:36:25 INDEX 01 47:39:37 TRACK 13 AUDIO TITLE "Полчаса (new-mix)" PERFORMER "Технология" INDEX 00 52:14:25 INDEX 01 52:18:07 TRACK 14 AUDIO TITLE "Песни ни о чем (house-mix)" PERFORMER "Технология" INDEX 00 57:12:12 INDEX 01 57:14:50 TRACK 15 AUDIO TITLE "Информация" PERFORMER "Технология" INDEX 00 64:45:25 INDEX 01 64:47:00

Лог auCDtect Task Manager

-----------------------
DON'T MODIFY THIS FILE
-----------------------
PERFORMER: auCDtect Task Manager, ver. 1.6.0 RC1 build 1.6.0.1Copyright (c) 2008-2010 y-soft. All rights reservedhttp://y-soft.org
ANALYZER: auCDtect: CD records authenticity detector, version 0.8.2Copyright (c) 2004 Oleg Berngardt. All rights reserved.Copyright (c) 2004 Alexander Djourik. All rights reserved.
FILE: Технология - Нажми на кнопку.flac Size: 463831155 Hash: C685F2D9C039E6ACA379F7C7CB694656 Accuracy: -m0 Conclusion: CDDA 100% Signature: F0FE2DEB3B1131A7D54F1E4C783C496DC3A71C8B

CD 03 - 1996 - Это война (00:53:07)

Треклист
01. Телефон Небес [04:42]
02. Королева Дорог [04:31]
03. Яд [04:13]
04. Скорая Помощь [04:46]
05. Экран (Ненужный Тормоз) [04:14]
06. Не Последний Танец [05:27]
07. Это Война... [04:47]
08. Хранитель Тишины [04:58]
09. Тайга [04:33]
10. Вспоминай [04:48]
11. Ветер [06:02]

Содержание индексной карты (.CUE)

REM GENRE ElectronicREM DATE 1996REM DISCID AA0C740BREM COMMENT "ExactAudioCopy v1.0b4"PERFORMER "Технология"TITLE "Это война"FILE "Технология - Это война.flac" WAVE TRACK 01 AUDIO TITLE "Телефон Небес" PERFORMER "Технология" INDEX 00 00:00:00 INDEX 01 00:00:17 TRACK 02 AUDIO TITLE "Королева Дорог" PERFORMER "Технология" INDEX 00 04:42:65 INDEX 01 04:42:67 TRACK 03 AUDIO TITLE "Яд" PERFORMER "Технология" INDEX 00 09:14:20 INDEX 01 09:14:25 TRACK 04 AUDIO TITLE "Скорая Помощь" PERFORMER "Технология" INDEX 00 13:28:17 INDEX 01 13:28:20 TRACK 05 AUDIO TITLE "Экран (Ненужный Тормоз)" PERFORMER "Технология" INDEX 00 18:14:72 INDEX 01 18:15:02 TRACK 06 AUDIO TITLE "Не Последний Танец" PERFORMER "Технология" INDEX 00 22:29:72 INDEX 01 22:30:00 TRACK 07 AUDIO TITLE "Это Война..." PERFORMER "Технология" INDEX 00 27:57:40 INDEX 01 27:57:42 TRACK 08 AUDIO TITLE "Хранитель Тишины" PERFORMER "Технология" INDEX 00 32:45:07 INDEX 01 32:45:10 TRACK 09 AUDIO TITLE "Тайга" PERFORMER "Технология" INDEX 00 37:44:00 INDEX 01 37:44:02 TRACK 10 AUDIO TITLE "Вспоминай" PERFORMER "Технология" INDEX 00 42:17:20 INDEX 01 42:17:22 TRACK 11 AUDIO TITLE "Ветер" PERFORMER "Технология" INDEX 00 47:06:02 INDEX 01 47:06:05

Лог auCDtect Task Manager

-----------------------
DON'T MODIFY THIS FILE
-----------------------
PERFORMER: auCDtect Task Manager, ver. 1.6.0 RC1 build 1.6.0.1Copyright (c) 2008-2010 y-soft. All rights reservedhttp://y-soft.org
ANALYZER: auCDtect: CD records authenticity detector, version 0.8.2Copyright (c) 2004 Oleg Berngardt. All rights reserved.Copyright (c) 2004 Alexander Djourik. All rights reserved.
FILE: Технология - Это война.flac Size: 359068193 Hash: 8140D301C26601612F42B54C91CFF511 Accuracy: -m0 Conclusion: CDDA 99% Signature: AC8CBEA1E2994CCDB3DA27DE39659815DC6FEC3A

Covers

Дополнительная информация

Для того, чтобы соответствовать формату раздачи, - FLAC, image+.cue, - рип был сделан с болванки, на которую был записан рип из этой раздачи: 1996 - Это война.Соответственно, лог EAC, содержание индексной карты (.CUE) и лог auCDtect Task Manager приведены именно для рипа с болванки. Логи оригинального диска можно найти по вышеприведённой ссылке.

CD 04 - 1998 - Ремиксы (00:58:35)

Треклист
01. Все Что Ты Хочешь (ExMix) [06:46]
02. Холодный След (Metall-Mix) [04:38]
03. Песни Ни О Чем (House-Mix) [07:39]
04. Полчаса (Reversed Joy) [05:01]
05. Нажми На Кнопку (New-Mix) [06:11]
06. Шутник (Mega-Mix) [06:28]
07. Шутник (Sympho-Mix) [06:03]
08. Шутник (House-Mix) [06:25]
09. Холодный След (16' Mix) [04:41]
10. Информация [04:38]

Содержание индексной карты (.CUE)

REM GENRE ElectronicREM DATE 1998REM DISCID 930DBB0AREM COMMENT "ExactAudioCopy v1.0b4"CATALOG 0101001556000PERFORMER "Технология"TITLE "Ремиксы"FILE "Технология - Ремиксы.flac" WAVE TRACK 01 AUDIO TITLE "Все Что Ты Хочешь (ExMix)" PERFORMER "Технология" INDEX 01 00:00:00 TRACK 02 AUDIO TITLE "Холодный След (Metall-Mix)" PERFORMER "Технология" INDEX 00 06:44:60 INDEX 01 06:46:60 TRACK 03 AUDIO TITLE "Песни Ни О Чем (House-Mix)" PERFORMER "Технология" INDEX 00 11:23:27 INDEX 01 11:25:27 TRACK 04 AUDIO TITLE "Полчаса (Reversed Joy)" PERFORMER "Технология" INDEX 00 19:02:27 INDEX 01 19:04:27 TRACK 05 AUDIO TITLE "Нажми На Кнопку (New-Mix)" PERFORMER "Технология" INDEX 00 24:04:00 INDEX 01 24:06:00 TRACK 06 AUDIO TITLE "Шутник (Mega-Mix)" PERFORMER "Технология" INDEX 00 30:15:22 INDEX 01 30:17:22 TRACK 07 AUDIO TITLE "Шутник (Sympho-Mix)" PERFORMER "Технология" INDEX 00 36:43:32 INDEX 01 36:45:32 TRACK 08 AUDIO TITLE "Шутник (House-Mix)" PERFORMER "Технология" INDEX 00 42:47:05 INDEX 01 42:49:05 TRACK 09 AUDIO TITLE "Холодный След (16' Mix)" PERFORMER "Технология" INDEX 00 49:12:60 INDEX 01 49:14:60 TRACK 10 AUDIO TITLE "Информация" PERFORMER "Технология" INDEX 00 53:54:37 INDEX 01 53:56:37

Лог auCDtect Task Manager

-----------------------
DON'T MODIFY THIS FILE
-----------------------
PERFORMER: auCDtect Task Manager, ver. 1.6.0 RC1 build 1.6.0.1Copyright (c) 2008-2010 y-soft. All rights reservedhttp://y-soft.org
ANALYZER: auCDtect: CD records authenticity detector, version 0.8.2Copyright (c) 2004 Oleg Berngardt. All rights reserved.Copyright (c) 2004 Alexander Djourik. All rights reserved.
FILE: Технология - Ремиксы.flac Size: 372840102 Hash: 70C87A929A88CA44209E71EF14611503 Accuracy: -m0 Conclusion: MPEG 90% Signature: 0F1C280E893E9077002B6A50C9DC971097134504

Скриншот спектра частот

Дополнительная информация

Рип сделан с собственного диска из моей личной коллекции. Диск сделан в Германии и куплен там же. Почему auCDtect Task Manager и Tau Analyzer определяют его как MPEG - ума не приложу.Перепробовал несколько разных приводов, но результат не изменился.Как сам диск, так и полиграфия содержат все необходимые идентификаторы, как положено. См. фото под спойлером "Covers".Label: Jeff Music - SS 98331Distributed By – Solo Florentin Music, GermanyBarcode: 5298 3313Manufactured By: Sony DADC (Austria)Matrix / Runout: A0100278076-0101 11Mastering SID Code (матрица): IFPI L551Mould SID Code (пресс-форма): IFPI 94G3http://www.discogs.com/%D0%A2%D0%B5%D1%85%D0%BD%D0%.../release/6710831Правда, на "дискогсе" Mastering SID Code почему-то указан другой - IFPI L221. Но это, видимо, ошибка, потому что проверка IFPI показывает:94G3 - Пресс: Sony DADC Austria AG (Anif and Thalgau), АвстрияL551 - Матрица: Sony DADC Austria AG (Anif and Thalgau), АвстрияL221 - Матрица: Columbia Music Denon (CDM) Oi River Partners (ранее Kawasaki), Япония . Пресс: East Lake Disc Technology Co., Ltd. Hubei, Китай.На моём экземпляре таки значится L551.Любопытно, что изначально у меня в коллекции был другой диск "Ремиксы", купленный по случаю на Горбушке. Вот такой: http://www.discogs.com/%D0%A2%D0%B5%D1%85%D0%BD%D0%.../release/2071400Некоторые считают, что это релиз UEP: http://collection-cd.narod.ru/catalog/tehnologia/al...mixes/cd_uep.htmМой же экземпляр, по правде говоря, никакой идентификационной информации, кроме Matrix Code (сигнатуры), не содержал. Да и сигнатура у него откровенно пиратская - SCN611C 01070. Я бы всё равно его выложил, потому что на сайте нет и такого, но анализ рипа показал, что это апконверт. Так как сомнений в происхождении диска у меня не было, я решил разориться на оригинальный. Нашёл, купил, долго ждал (около месяца), когда приедет, получил, рипнул и сильно удивился, когда протестировал рип.На всякий случай замечу, что практически все ремиксы, собранные на этом диске, имеются на другом релизе - "Мне не нужна информация". Правда, время звучания всех композиций немного уменьшено (разница составляет от 5 до 11 секунд) и некоторые из них названы по-другому. Например, "Всё, Что Ты Хочешь (ExMix)" на сборнике 2003 года получила название "Всё, Что Ты Хочешь (Big Mix)", "Нажми На Кнопку (New - Mix)" стала "Нажми На Кнопку (Show Mix)", а "Полчаса (Reversed Joy)" - "Полчаса (New Mix)". Единственная композиция из альбома "Ремиксы" 1998 года, которой нет на диске "Мне не нужна информация", это "Шутник (Symfo-Mix)". Но её можно найти на переиздании альбома "Всё, Что Ты Хочешь" 2003 года. Кстати, там название написано уже правильно - "Шутник (Sympho Mix)". А вот длительность звучания также сокращена, к сожалению, аж на целых 12 секунд.

CD 05 - 2001 - Лучшие песни (01:13:44)

Треклист
01. Нажми на кнопку [04:30]
02. Странные танцы [04:54]
03. Там [04:07]
04. Холодный след [04:28]
05. Сигнал [03:24]
06. Полчаса [04:10]
07. Песня обо всем [03:06]
08. Рано или поздно [05:21]
09. Сегодня ночью [04:56]
10. Черный день [04:24]
11. Все, что ты хочешь [03:07]
12. В память о тебе [03:21]
13. Один [04:27]
14. Песни ни о чем [05:50]
15. Шутник [04:28]
16. Первый полет [05:46]
17. Имитатор [03:17]

Содержание индексной карты (.CUE)

REM GENRE TechnoREM DATE 2001REM DISCID FD114811REM COMMENT "ExactAudioCopy v0.99pb4"PERFORMER "Технология"TITLE "Лучшие песни"FILE "Технология - Лучшие песни.flac" WAVE TRACK 01 AUDIO TITLE "Нажми на кнопку" PERFORMER "Технология" INDEX 01 00:00:00 TRACK 02 AUDIO TITLE "Странные танцы" PERFORMER "Технология" INDEX 00 04:28:46 INDEX 01 04:30:45 TRACK 03 AUDIO TITLE "Там" PERFORMER "Технология" INDEX 00 09:23:04 INDEX 01 09:25:03 TRACK 04 AUDIO TITLE "Холодный след" PERFORMER "Технология" INDEX 00 13:30:46 INDEX 01 13:32:45 TRACK 05 AUDIO TITLE "Сигнал" PERFORMER "Технология" INDEX 00 17:58:52 INDEX 01 18:00:51 TRACK 06 AUDIO TITLE "Полчаса" PERFORMER "Технология" INDEX 00 21:23:35 INDEX 01 21:25:34 TRACK 07 AUDIO TITLE "Песня обо всём" PERFORMER "Технология" INDEX 00 25:33:51 INDEX 01 25:35:50 TRACK 08 AUDIO TITLE "Рано или поздно" PERFORMER "Технология" INDEX 00 28:40:18 INDEX 01 28:42:17 TRACK 09 AUDIO TITLE "Сегодня ночью" PERFORMER "Технология" INDEX 00 34:01:34 INDEX 01 34:03:33 TRACK 10 AUDIO TITLE "Чёрный день" PERFORMER "Технология" INDEX 00 38:58:29 INDEX 01 39:00:28 TRACK 11 AUDIO TITLE "Всё, что ты хочешь" PERFORMER "Технология" INDEX 00 43:23:15 INDEX 01 43:25:14 TRACK 12 AUDIO TITLE "В память о тебе" PERFORMER "Технология" INDEX 00 46:30:60 INDEX 01 46:32:59 TRACK 13 AUDIO TITLE "Один" PERFORMER "Технология" INDEX 00 49:52:23 INDEX 01 49:54:22 TRACK 14 AUDIO TITLE "Песни ни о чём" PERFORMER "Технология" INDEX 00 54:19:48 INDEX 01 54:21:47 TRACK 15 AUDIO TITLE "Шутник" PERFORMER "Технология" INDEX 00 60:10:10 INDEX 01 60:12:09 TRACK 16 AUDIO TITLE "Первый полёт" PERFORMER "Технология" INDEX 00 64:38:10 INDEX 01 64:40:09 TRACK 17 AUDIO TITLE "Имитатор" PERFORMER "Технология" INDEX 00 70:24:72 INDEX 01 70:26:71

Лог auCDtect Task Manager

-----------------------
DON'T MODIFY THIS FILE
-----------------------
PERFORMER: auCDtect Task Manager, ver. 1.6.0 RC1 build 1.6.0.1Copyright (c) 2008-2010 y-soft. All rights reservedhttp://y-soft.org
ANALYZER: auCDtect: CD records authenticity detector, version 0.8.2Copyright (c) 2004 Oleg Berngardt. All rights reserved.Copyright (c) 2004 Alexander Djourik. All rights reserved.
FILE: Технология - Лучшие песни.flac Size: 523466607 Hash: DDF29D36D370A87BFB3963E45D96EA54 Accuracy: -m0 Conclusion: CDDA 100% Signature: FB13B672ACC5E062E154D3E8B8EE4E2B782DC910

Covers

CD 06 - 2003 - Всё, что ты хочешь (переиздание) (00:46:18)

Треклист
01. Intro [00:22]
02. Нажми на кнопку [04:28]
03. Всё, что ты хочешь [03:47]
04. Странные танцы [04:52]
05. Холодный след [04:26]
06. Cm-112 [02:24]
07. Один [04:41]
08. Set Me Free [02:51]
09. Песни ни о чём [04:14]
10. Шутник [04:55]
11. Полчаса [03:22]
12. Шутник (Sympho mix) [05:51]

Содержание индексной карты (.CUE)

REM GENRE ElectronicREM DATE 2003REM DISCID 8D0ADA0CREM COMMENT "ExactAudioCopy v1.0b4"PERFORMER "Технология"TITLE "Всё, что ты хочешь"FILE "Технология - Всё, что ты хочешь.flac" WAVE TRACK 01 AUDIO TITLE "Intro" PERFORMER "Технология" INDEX 01 00:00:00 TRACK 02 AUDIO TITLE "Нажми на кнопку" PERFORMER "Технология" INDEX 01 00:22:05 TRACK 03 AUDIO TITLE "Всё, что ты хочешь" PERFORMER "Технология" INDEX 01 04:50:18 TRACK 04 AUDIO TITLE "Странные танцы" PERFORMER "Технология" INDEX 01 08:37:51 TRACK 05 AUDIO TITLE "Холодный след" PERFORMER "Технология" INDEX 01 13:30:17 TRACK 06 AUDIO TITLE "Cm-112" PERFORMER "Технология" INDEX 01 17:56:36 TRACK 07 AUDIO TITLE "Один" PERFORMER "Технология" INDEX 01 20:21:22 TRACK 08 AUDIO TITLE "Set Me Free" PERFORMER "Технология" INDEX 01 25:02:22 TRACK 09 AUDIO TITLE "Песни ни о чём" PERFORMER "Технология" INDEX 01 27:54:18 TRACK 10 AUDIO TITLE "Шутник" PERFORMER "Технология" INDEX 01 32:08:35 TRACK 11 AUDIO TITLE "Полчаса" PERFORMER "Технология" INDEX 01 37:03:42 TRACK 12 AUDIO TITLE "Шутник (Sympho mix)" PERFORMER "Технология" INDEX 01 40:26:20

Лог auCDtect Task Manager

-----------------------
DON'T MODIFY THIS FILE
-----------------------
PERFORMER: auCDtect Task Manager, ver. 1.6.0 RC1 build 1.6.0.1Copyright (c) 2008-2010 y-soft. All rights reservedhttp://y-soft.org
ANALYZER: auCDtect: CD records authenticity detector, version 0.8.2Copyright (c) 2004 Oleg Berngardt. All rights reserved.Copyright (c) 2004 Alexander Djourik. All rights reserved.
FILE: Технология - Всё, что ты хочешь.flac Size: 324718543 Hash: 87EFB6041BC63D37A4CA4DF77B2A1198 Accuracy: -m0 Conclusion: CDDA 100% Signature: 189DD3B564A71183A50FCFC2AFFD29B35BD1DE6E

CD 07 - 2003 - Мне не нужна информация (переиздание) (00:59:24)

Треклист
01. Песни ни о чем (House Mix) [07:28]
02. Шутник (House Mix) [06:19]
03. Информация [04:35]
04. Холодный след (16" Mix) [04:32]
05. Шутник (Mega Mix) [06:22]
06. Полчаса (New Mix) [04:52]
07. Все, что ты хочешь (Big Mix) [06:38]
08. Дискотеки [03:59]
09. Иди со мной [04:02]
10. Нажми на кнопку (Show Mix) [06:01]
11. Холодный след (Metal Mix) [04:33]

Содержание индексной карты (.CUE)

REM GENRE ElectronicREM DATE 2003REM DISCID 980DEC0BREM COMMENT "ExactAudioCopy v1.0b4"PERFORMER "Технология"TITLE "Мне не нужна информация"FILE "Технология - Мне не нужна информация.flac" WAVE TRACK 01 AUDIO TITLE "Песни ни о чем (House Mix)" PERFORMER "Технология" INDEX 01 00:00:00 TRACK 02 AUDIO TITLE "Шутник (House Mix)" PERFORMER "Технология" INDEX 01 07:28:01 TRACK 03 AUDIO TITLE "Информация" PERFORMER "Технология" INDEX 01 13:47:29 TRACK 04 AUDIO TITLE "Холодный след (16' Mix)" PERFORMER "Технология" INDEX 01 18:22:36 TRACK 05 AUDIO TITLE "Шутник (Mega Mix)" PERFORMER "Технология" INDEX 01 22:55:26 TRACK 06 AUDIO TITLE "Полчаса (New Mix)" PERFORMER "Технология" INDEX 01 29:17:51 TRACK 07 AUDIO TITLE "Все, что ты хочешь (Big Mix)" PERFORMER "Технология" INDEX 01 34:09:61 TRACK 08 AUDIO TITLE "Дискотеки" PERFORMER "Технология" INDEX 01 40:48:14 TRACK 09 AUDIO TITLE "Иди со мной" PERFORMER "Технология" INDEX 01 44:47:17 TRACK 10 AUDIO TITLE "Нажми на кнопку (Show Mix)" PERFORMER "Технология" INDEX 01 48:49:55 TRACK 11 AUDIO TITLE "Холодный след (Metal Mix)" PERFORMER "Технология" INDEX 01 54:51:16

Лог auCDtect Task Manager

-----------------------
DON'T MODIFY THIS FILE
-----------------------
PERFORMER: auCDtect Task Manager, ver. 1.6.0 RC1 build 1.6.0.1Copyright (c) 2008-2010 y-soft. All rights reservedhttp://y-soft.org
ANALYZER: auCDtect: CD records authenticity detector, version 0.8.2Copyright (c) 2004 Oleg Berngardt. All rights reserved.Copyright (c) 2004 Alexander Djourik. All rights reserved.
FILE: Технология - Мне не нужна информация.flac Size: 415241140 Hash: 618D825F8953D8B92541C5ADACDA3CDF Accuracy: -m0 Conclusion: CDDA 100% Signature: AF5C3C5C23A997A35388F29FB843CC39602B18A5

CD 08 - 2003 - Рано или поздно (переиздание) (00:49:32)

Треклист
01. Первый полёт [05:46]
02. Сегодня ночью [04:55]
03. Рано или поздно [05:52]
04. Чёрный день [04:55]
05. Сигнал [03:23]
06. Песня обо всём [03:54]
07. Ядерный джаз [03:35]
08. Имитатор [03:47]
09. В память о тебе [04:44]
10. Последний вопрос [03:19]
11. Первый полёт (Original mix) [05:16]

Содержание индексной карты (.CUE)

REM GENRE ElectronicREM DATE 2003REM DISCID AB0B9C0BREM COMMENT "ExactAudioCopy v1.0b4"PERFORMER "Технология"TITLE "Рано или поздно"FILE "Технология - Рано или поздно.flac" WAVE TRACK 01 AUDIO TITLE "Первый полёт" PERFORMER "Технология" INDEX 01 00:00:00 TRACK 02 AUDIO TITLE "Сегодня ночью" PERFORMER "Технология" INDEX 01 05:46:31 TRACK 03 AUDIO TITLE "Рано или поздно" PERFORMER "Технология" INDEX 01 10:42:00 TRACK 04 AUDIO TITLE "Чёрный день" PERFORMER "Технология" INDEX 01 16:34:22 TRACK 05 AUDIO TITLE "Сигнал" PERFORMER "Технология" INDEX 01 21:30:18 TRACK 06 AUDIO TITLE "Песня обо всём" PERFORMER "Технология" INDEX 01 24:53:60 TRACK 07 AUDIO TITLE "Ядерный джаз" PERFORMER "Технология" INDEX 01 28:48:26 TRACK 08 AUDIO TITLE "Имитатор" PERFORMER "Технология" INDEX 01 32:24:03 TRACK 09 AUDIO TITLE "В память о тебе" PERFORMER "Технология" INDEX 01 36:11:53 TRACK 10 AUDIO TITLE "Последний вопрос" PERFORMER "Технология" INDEX 01 40:56:03 TRACK 11 AUDIO TITLE "Первый полёт (Original mix)" PERFORMER "Технология" INDEX 01 44:15:36

Лог auCDtect Task Manager

-----------------------
DON'T MODIFY THIS FILE
-----------------------
PERFORMER: auCDtect Task Manager, ver. 1.6.0 RC1 build 1.6.0.1Copyright (c) 2008-2010 y-soft. All rights reservedhttp://y-soft.org
ANALYZER: auCDtect: CD records authenticity detector, version 0.8.2Copyright (c) 2004 Oleg Berngardt. All rights reserved.Copyright (c) 2004 Alexander Djourik. All rights reserved.
FILE: Технология - Рано или поздно.flac Size: 344454066 Hash: A40F7282D8084A7FDA2EB421087E9795 Accuracy: -m0 Conclusion: CDDA 100% Signature: 28DABA35E26DF0CADA8C1DCF2AF5E63F1D9BABDD

CD 09 - 2003 - Это война (переиздание) (00:53:17)

Треклист
01. Телефон небес [05:13]
02. Королева дорог [04:23]
03. Яд [05:00]
04. Скорая помощь [04:03]
05. Экран (ненужный тормоз) [04:13]
06. Не последний танец [05:29]
07. Это война [04:45]
08. Хранитель тишины [05:18]
09. Тайга [04:40]
10. Вспоминай [04:31]
11. Ветер [05:38]

Содержание индексной карты (.CUE)

REM GENRE ElectronicREM DATE 2003REM DISCID 9F0C7D0BREM COMMENT "ExactAudioCopy v1.0b4"PERFORMER "Технология"TITLE "Это война"FILE "Технология - Это война.flac" WAVE TRACK 01 AUDIO TITLE "Телефон небес" PERFORMER "Технология" INDEX 01 00:00:00 TRACK 02 AUDIO TITLE "Королева дорог" PERFORMER "Технология" INDEX 01 05:13:20 TRACK 03 AUDIO TITLE "Яд" PERFORMER "Технология" INDEX 01 09:37:00 TRACK 04 AUDIO TITLE "Скорая помощь" PERFORMER "Технология" INDEX 01 14:37:32 TRACK 05 AUDIO TITLE "Экран (ненужный тормоз)" PERFORMER "Технология" INDEX 01 18:41:24 TRACK 06 AUDIO TITLE "Не последний танец" PERFORMER "Технология" INDEX 01 22:54:54 TRACK 07 AUDIO TITLE "Это война" PERFORMER "Технология" INDEX 01 28:23:59 TRACK 08 AUDIO TITLE "Хранитель тишины" PERFORMER "Технология" INDEX 01 33:08:66 TRACK 09 AUDIO TITLE "Тайга" PERFORMER "Технология" INDEX 01 38:27:40 TRACK 10 AUDIO TITLE "Вспоминай" PERFORMER "Технология" INDEX 01 43:08:05 TRACK 11 AUDIO TITLE "Ветер" PERFORMER "Технология" INDEX 01 47:39:09

Лог auCDtect Task Manager

-----------------------
DON'T MODIFY THIS FILE
-----------------------
PERFORMER: auCDtect Task Manager, ver. 1.6.0 RC1 build 1.6.0.1Copyright (c) 2008-2010 y-soft. All rights reservedhttp://y-soft.org
ANALYZER: auCDtect: CD records authenticity detector, version 0.8.2Copyright (c) 2004 Oleg Berngardt. All rights reserved.Copyright (c) 2004 Alexander Djourik. All rights reserved.
FILE: Технология - Это война.flac Size: 348155582 Hash: 9A60BFC809A167B358044AC184D1DD4E Accuracy: -m0 Conclusion: CDDA 100% Signature: 87C204612C04136235B0708F40B56A922EDBEDED

CD 10 - 2004 - Легендарные песни (01:08:06)

Треклист
01. Полчаса (2004 Mix) [03:51]
02. Саморазрушение [05:36]
03. Странные танцы [04:49]
04. Сегодня ночью [04:53]
05. Яд [03:58]
06. В память о тебе [04:32]
07. Люди [04:35]
08. Сигнал [03:22]
09. Всё, что ты хочешь (2004 Mix) [04:09]
10. Песни ни о чём [04:11]
11. Нажми на кнопку (2004 Mix) [05:05]
12. Песни обо всём [03:37]
13. Ветер [05:15]
14. Холодный след (16' Mix) [04:30]
15. Рано или поздно [05:36]

Содержание индексной карты (.CUE)

REM GENRE ElectronicREM DATE 2004REM DISCID DD0FF60FREM COMMENT "ExactAudioCopy v1.0b4"PERFORMER "Технология"TITLE "Легендарные Песни"FILE "Технология - Легендарные Песни.flac" WAVE TRACK 01 AUDIO TITLE "Полчаса (2004 Mix)" PERFORMER "Технология" FLAGS DCP INDEX 01 00:00:00 TRACK 02 AUDIO TITLE "Саморазрушение" PERFORMER "Технология" FLAGS DCP INDEX 01 03:51:53 TRACK 03 AUDIO TITLE "Странные танцы" PERFORMER "Технология" FLAGS DCP INDEX 01 09:27:56 TRACK 04 AUDIO TITLE "Сегодня ночью" PERFORMER "Технология" FLAGS DCP INDEX 01 14:17:13 TRACK 05 AUDIO TITLE "Яд" PERFORMER "Технология" FLAGS DCP INDEX 01 19:10:61 TRACK 06 AUDIO TITLE "В память о тебе" PERFORMER "Технология" FLAGS DCP INDEX 01 23:09:24 TRACK 07 AUDIO TITLE "Люди" PERFORMER "Технология" FLAGS DCP INDEX 01 27:42:00 TRACK 08 AUDIO TITLE "Сигнал" PERFORMER "Технология" FLAGS DCP INDEX 01 32:17:13 TRACK 09 AUDIO TITLE "Всё, что ты хочешь (2004 Mix)" PERFORMER "Технология" FLAGS DCP INDEX 01 35:39:27 TRACK 10 AUDIO TITLE "Песни ни о чём" PERFORMER "Технология" FLAGS DCP INDEX 01 39:49:12 TRACK 11 AUDIO TITLE "Нажми на кнопку (2004 Mix)" PERFORMER "Технология" FLAGS DCP INDEX 01 44:01:07 TRACK 12 AUDIO TITLE "Песни обо всём" PERFORMER "Технология" FLAGS DCP INDEX 01 49:06:14 TRACK 13 AUDIO TITLE "Ветер" PERFORMER "Технология" FLAGS DCP INDEX 01 52:43:40 TRACK 14 AUDIO TITLE "Холодный след (16' Mix)" PERFORMER "Технология" FLAGS DCP INDEX 01 57:58:52 TRACK 15 AUDIO TITLE "Рано или поздно" PERFORMER "Технология" FLAGS DCP INDEX 01 62:29:51

Лог auCDtect Task Manager

-----------------------
DON'T MODIFY THIS FILE
-----------------------
PERFORMER: auCDtect Task Manager, ver. 1.6.0 RC1 build 1.6.0.1Copyright (c) 2008-2010 y-soft. All rights reservedhttp://y-soft.org
ANALYZER: auCDtect: CD records authenticity detector, version 0.8.2Copyright (c) 2004 Oleg Berngardt. All rights reserved.Copyright (c) 2004 Alexander Djourik. All rights reserved.
FILE: Технология - Легендарные Песни.flac Size: 484070456 Hash: 19F98FFE0F759361B098EED1E9DEFD16 Accuracy: -m0 Conclusion: CDDA 100% Signature: 9EC53AFAF83DFE9949409F68D53FD79B90A3E4D0

CD 11 - 2006 - Дайте огня (макси-сингл) (00:29:14)

Треклист
01. Дайте огня (дуэт гр. Технология и гр. Альянс) [04:03]
02. Последнее слово (Radio Edit) [03:35]
03. Нажми на кнопку (Radio Edit 2006) [03:14]
04. Дайте огня [03:55]
05. Последнее слово (Soft Dance Mix) [03:38]
06. Нажми на кнопку (Instrumental) [03:14]
07. Дайте огня (Instrumental) [03:55]
08. Последнее слово (Instrumental) [03:36]

Содержание индексной карты (.CUE)

REM GENRE ElectronicREM DATE 2006REM DISCID 5E06DA08REM COMMENT "ExactAudioCopy v1.0b4"PERFORMER "Технология"TITLE "Дайте огня"FILE "Технология - Дайте огня.flac" WAVE TRACK 01 AUDIO TITLE "Дайте огня (дуэт гр. Технология и гр. Альянс)" PERFORMER "Технология" INDEX 01 00:00:00 TRACK 02 AUDIO TITLE "Последнее слово (Radio Edit)" PERFORMER "Технология" INDEX 00 04:01:41 INDEX 01 04:03:41 TRACK 03 AUDIO TITLE "Нажми на кнопку (Radio Edit 2006)" PERFORMER "Технология" INDEX 00 07:37:03 INDEX 01 07:39:03 TRACK 04 AUDIO TITLE "Дайте огня" PERFORMER "Технология" INDEX 00 10:51:16 INDEX 01 10:53:16 TRACK 05 AUDIO TITLE "Последнее слово (Soft Dance Mix)" PERFORMER "Технология" INDEX 00 14:46:55 INDEX 01 14:48:55 TRACK 06 AUDIO TITLE "Нажми на кнопку (Instrumental)" PERFORMER "Технология" INDEX 00 18:25:42 INDEX 01 18:27:42 TRACK 07 AUDIO TITLE "Дайте огня (Instrumental)" PERFORMER "Технология" INDEX 00 21:40:04 INDEX 01 21:42:04 TRACK 08 AUDIO TITLE "Последнее слово (Instrumental)" PERFORMER "Технология" INDEX 00 25:35:44 INDEX 01 25:37:44

Лог auCDtect Task Manager

-----------------------
DON'T MODIFY THIS FILE
-----------------------
PERFORMER: auCDtect Task Manager, ver. 1.6.0 RC1 build 1.6.0.1Copyright (c) 2008-2010 y-soft. All rights reservedhttp://y-soft.org
ANALYZER: auCDtect: CD records authenticity detector, version 0.8.2Copyright (c) 2004 Oleg Berngardt. All rights reserved.Copyright (c) 2004 Alexander Djourik. All rights reserved.
FILE: Технология - Дайте огня.flac Size: 221814404 Hash: 75DA6DFD78B7C44149DB10B757C9F973 Accuracy: -m0 Conclusion: CDDA 100% Signature: 80B1683DED25DEF964F15E1970E0928E036EFEE9

CD 12 - 2007 - Камни (Remix edition) (00:58:03)

Треклист
01. Камни (Single Mix) [04:09]
02. Камни (Dj Ram Mix) [04:47]
03. Колыбельная (Green Mix) [05:40]
04. Камни (Milestone Mix) [04:43]
05. Камни (Digital Machine Plastic Remix) [05:04]
06. Rising Robots (УВЧ Single Mix) [05:25]
07. Камни (Power Mix) [03:56]
08. Камни (Jammology Mix) [06:21]
09. Колыбельная (Doxylamine Succinate Mix) [05:17]
10. Камни (Hospital 67 Relaxed Mix ) [08:28]
11. Камни (Караоке) [04:07]

Содержание индексной карты (.CUE)

REM GENRE ElectronicREM DATE 2007REM DISCID 9C0D9B0BREM COMMENT "ExactAudioCopy v1.0b4"PERFORMER "Технология"TITLE "Камни"FILE "Технология - Камни.flac" WAVE TRACK 01 AUDIO TITLE "Камни (Single Mix)" PERFORMER "Технология" INDEX 01 00:00:00 TRACK 02 AUDIO TITLE "Камни (Dj Ram Mix)" PERFORMER "Технология" INDEX 01 04:09:27 TRACK 03 AUDIO TITLE "Колыбельная (Green Mix)" PERFORMER "Технология" INDEX 01 08:57:22 TRACK 04 AUDIO TITLE "Камни (Milestone Mix)" PERFORMER "Технология" INDEX 01 14:37:37 TRACK 05 AUDIO TITLE "Камни (Digital Machine Plastic Remix)" PERFORMER "Технология" INDEX 01 19:21:28 TRACK 06 AUDIO TITLE "Rising Robots (УВЧ Single Mix)" PERFORMER "Технология" INDEX 01 24:25:55 TRACK 07 AUDIO TITLE "Камни (Power Mix)" PERFORMER "Технология" INDEX 01 29:51:20 TRACK 08 AUDIO TITLE "Камни (Jammology Mix)" PERFORMER "Технология" INDEX 01 33:47:49 TRACK 09 AUDIO TITLE "Колыбельная (Doxylamine Succinate Mix)" PERFORMER "Технология" INDEX 01 40:09:44 TRACK 10 AUDIO TITLE "Камни (Hospital 67 Relaxed Mix )" PERFORMER "Технология" INDEX 01 45:27:29 TRACK 11 AUDIO TITLE "Камни (Караоке)" PERFORMER "Технология" INDEX 01 53:55:36

Лог auCDtect Task Manager

-----------------------
DON'T MODIFY THIS FILE
-----------------------
PERFORMER: auCDtect Task Manager, ver. 1.6.0 RC1 build 1.6.0.1Copyright (c) 2008-2010 y-soft. All rights reservedhttp://y-soft.org
ANALYZER: auCDtect: CD records authenticity detector, version 0.8.2Copyright (c) 2004 Oleg Berngardt. All rights reserved.Copyright (c) 2004 Alexander Djourik. All rights reserved.
FILE: Технология - Камни.flac Size: 409422835 Hash: 4348EACD472588532D19C6047E4C03BB Accuracy: -m0 Conclusion: CDDA 100% Signature: 082CB302B6FC134FC42984E1F7B6BB9B9ACA42FB

CD 13 - 2009 - Technology feat. Elegant Machinery. Brave New World (00:34:22)

Треклист
01. Brave New World (Radio Edit) [03:56]
02. Brave New World (Community-Identity-Stability) [05:54]
03. Brave New World (Digital Machine Remix) [04:25]
04. Brave New World (West Aura Mix) [04:57]
05. Brave New World (ZH.D Project Remix) [05:45]
06. Brave New World (Soma Mix) [09:23]

Содержание индексной карты (.CUE)

REM GENRE ElectronicREM DATE 2009REM DISCID 45080E06REM COMMENT "ExactAudioCopy v1.0b4"PERFORMER "Technology"TITLE "Brave New World"FILE "Technology - Brave New World.flac" WAVE TRACK 01 AUDIO TITLE "Brave New World (Radio Edit)" PERFORMER "Technology" INDEX 01 00:00:00 TRACK 02 AUDIO TITLE "Brave New World (Community-Identity-Stability)" PERFORMER "Technology" INDEX 00 03:54:44 INDEX 01 03:56:44 TRACK 03 AUDIO TITLE "Brave New World (Digital Machine Remix)" PERFORMER "Technology" INDEX 00 09:48:51 INDEX 01 09:50:51 TRACK 04 AUDIO TITLE "Brave New World (West Aura Mix)" PERFORMER "Technology" INDEX 00 14:13:64 INDEX 01 14:15:64 TRACK 05 AUDIO TITLE "Brave New World (ZH.D Project Remix)" PERFORMER "Technology" INDEX 00 19:11:22 INDEX 01 19:13:22 TRACK 06 AUDIO TITLE "Brave New World (Soma Mix)" PERFORMER "Technology" INDEX 00 24:56:58 INDEX 01 24:58:58

Лог auCDtect Task Manager

-----------------------
DON'T MODIFY THIS FILE
-----------------------
PERFORMER: auCDtect Task Manager, ver. 1.6.0 RC1 build 1.6.0.1Copyright (c) 2008-2010 y-soft. All rights reservedhttp://y-soft.org
ANALYZER: auCDtect: CD records authenticity detector, version 0.8.2Copyright (c) 2004 Oleg Berngardt. All rights reserved.Copyright (c) 2004 Alexander Djourik. All rights reserved.
FILE: Technology - Brave New World.flac Size: 247395876 Hash: DCD786F961D1628FBAC6CD5E112E541F Accuracy: -m0 Conclusion: CDDA 100% Signature: C7BEFE85493BE0B4ABF02DC412178070FD30A811

CD 14 - 2009 - Дивный новый мир (00:47:47)

Треклист
01. Дивный Новый Мир (Radio Edit) [03:37]
02. Саморазрушение (Hedonism Pop) [05:25]
03. Дивный Новый Мир (Grunjah Remix) [06:11]
04. Дивный Новый Мир (Bursting Speakers Remix) [05:14]
05. Слава Роботам! (Collider Mix) [04:08]
06. Дивный Новый Мир (DjVini Remix) [04:36]
07. Саморазрушение (Distimizer Mix) [04:48]
08. Дивный Новый Мир (Soma Mix) [09:25]
09. Дивный Новый Мир (Instrumental) [04:19]

Содержание индексной карты (.CUE)

REM GENRE ElectronicREM DATE 2009REM DISCID 690B3309REM COMMENT "ExactAudioCopy v1.0b4"PERFORMER "Технология"TITLE "Дивный Новый Мир"FILE "Технология - Дивный Новый Мир.flac" WAVE TRACK 01 AUDIO TITLE "Дивный Новый Мир (Radio Edit)" PERFORMER "Технология" INDEX 01 00:00:00 TRACK 02 AUDIO TITLE "Саморазрушение (Hedonism Pop)" PERFORMER "Технология" INDEX 00 03:35:25 INDEX 01 03:37:25 TRACK 03 AUDIO TITLE "Дивный Новый Мир (Grunjah Remix)" PERFORMER "Технология" INDEX 00 09:00:30 INDEX 01 09:02:30 TRACK 04 AUDIO TITLE "Дивный Новый Мир (Bursting Speakers Remix)" PERFORMER "Технология" INDEX 00 15:11:71 INDEX 01 15:13:71 TRACK 05 AUDIO TITLE "Слава Роботам! (Collider Mix)" PERFORMER "Технология" INDEX 00 20:26:28 INDEX 01 20:28:28 TRACK 06 AUDIO TITLE "Дивный Новый Мир (DjVini Remix)" PERFORMER "Технология" INDEX 00 24:34:71 INDEX 01 24:36:71 TRACK 07 AUDIO TITLE "Саморазрушение (Distimizer Mix)" PERFORMER "Технология" INDEX 00 29:11:32 INDEX 01 29:13:32 TRACK 08 AUDIO TITLE "Дивный Новый Мир (Soma Mix)" PERFORMER "Технология" INDEX 00 34:00:24 INDEX 01 34:02:24 TRACK 09 AUDIO TITLE "Дивный Новый Мир (Instrumental)" PERFORMER "Технология" INDEX 00 43:26:07 INDEX 01 43:28:07

Лог auCDtect Task Manager

-----------------------
DON'T MODIFY THIS FILE
-----------------------
PERFORMER: auCDtect Task Manager, ver. 1.6.0 RC1 build 1.6.0.1Copyright (c) 2008-2010 y-soft. All rights reservedhttp://y-soft.org
ANALYZER: auCDtect: CD records authenticity detector, version 0.8.2Copyright (c) 2004 Oleg Berngardt. All rights reserved.Copyright (c) 2004 Alexander Djourik. All rights reserved.
FILE: Технология - Дивный Новый Мир.flac Size: 337025839 Hash: 74AE9AE7754599AA05B1525EE1755218 Accuracy: -m0 Conclusion: CDDA 100% Signature: 132227B9D8AE8FA0548AA7D5FC6C8F31DA890C2A

CD 15 - 2009 - Носитель идей (Regular version) (01:04:15)

Треклист
01. Ctrl+Alt+Del [00:34]
02. Дивный Новый Мир [04:56]
03. Саморазрушение [06:04]
04. Ветер (Чёрно-белая Версия) [04:37]
05. Последнее Слово [04:19]
06. Камни [06:03]
07. Сделай Так [04:12]
08. Новый Путь [04:47]
09. Слава Роботам! [03:50]
10. Ode To Joy [00:24]
11. Латекс [04:55]
12. Невозможная Связь [01:42]
13. Ночной Прохожий [05:51]
14. Люди [04:39]
15. Дайте Огня [05:15]
16. This Is Just The End [02:01]

Содержание индексной карты (.CUE)

REM GENRE ElectronicREM DATE 2009REM DISCID EF0F0F10REM COMMENT "ExactAudioCopy v1.0b4"PERFORMER "Технология"TITLE "Носитель Идей"FILE "Технология - Носитель Идей.flac" WAVE TRACK 01 AUDIO TITLE "Ctrl+Alt+Del" PERFORMER "Технология" INDEX 01 00:00:00 TRACK 02 AUDIO TITLE "Дивный Новый Мир" PERFORMER "Технология" INDEX 01 00:34:00 TRACK 03 AUDIO TITLE "Саморазрушение" PERFORMER "Технология" INDEX 01 05:30:53 TRACK 04 AUDIO TITLE "Ветер (Чёрно-белая Версия)" PERFORMER "Технология" INDEX 01 11:35:32 TRACK 05 AUDIO TITLE "Последнее Слово" PERFORMER "Технология" INDEX 01 16:12:45 TRACK 06 AUDIO TITLE "Камни" PERFORMER "Технология" INDEX 01 20:31:58 TRACK 07 AUDIO TITLE "Сделай Так" PERFORMER "Технология" INDEX 00 26:34:26 INDEX 01 26:35:21 TRACK 08 AUDIO TITLE "Новый Путь" PERFORMER "Технология" INDEX 01 30:47:53 TRACK 09 AUDIO TITLE "Слава Роботам!" PERFORMER "Технология" INDEX 01 35:35:16 TRACK 10 AUDIO TITLE "Ode To Joy" PERFORMER "Технология" INDEX 01 39:25:53 TRACK 11 AUDIO TITLE "Латекс" PERFORMER "Технология" INDEX 01 39:50:15 TRACK 12 AUDIO TITLE "Невозможная Связь" PERFORMER "Технология" INDEX 01 44:45:55 TRACK 13 AUDIO TITLE "Ночной Прохожий" PERFORMER "Технология" INDEX 01 46:28:42 TRACK 14 AUDIO TITLE "Люди" PERFORMER "Технология" INDEX 01 52:19:43 TRACK 15 AUDIO TITLE "Дайте Огня" PERFORMER "Технология" INDEX 01 56:58:57 TRACK 16 AUDIO TITLE "This Is Just The End" PERFORMER "Технология" INDEX 01 62:14:52

Лог auCDtect Task Manager

-----------------------
DON'T MODIFY THIS FILE
-----------------------
PERFORMER: auCDtect Task Manager, ver. 1.6.0 RC1 build 1.6.0.1Copyright (c) 2008-2010 y-soft. All rights reservedhttp://y-soft.org
ANALYZER: auCDtect: CD records authenticity detector, version 0.8.2Copyright (c) 2004 Oleg Berngardt. All rights reserved.Copyright (c) 2004 Alexander Djourik. All rights reserved.
FILE: Технология - Носитель Идей.flac Size: 475554407 Hash: 63286A6D9802D3A3E78340F752519774 Accuracy: -m0 Conclusion: CDDA 100% Signature: A81B209A9C3618E7FD0CDEA7D349B5E97057E117

CD 16 - 2009 - Носитель идей (Premium edition) (01:14:07)

Треклист
01. Ctrl+Alt+Del [00:34]
02. Дивный Новый Мир [04:56]
03. Саморазрушение [06:04]
04. Ветер (Чёрно-белая Версия) [04:37]
05. Последнее Слово [04:19]
06. Камни [06:03]
07. Сделай Так [04:12]
08. Новый Путь [04:47]
09. Слава Роботам! [03:50]
10. Ode To Joy [00:24]
11. Латекс [04:55]
12. Невозможная Связь [01:42]
13. Ночной Прохожий [05:51]
14. Люди [04:39]
15. Дайте Огня [05:15]
16. This Is Just The End [02:01]
17. Носитель Идей [00:30]
18. Дивный Новый Мир [Digital Machine Dub] [04:02]
19. Дивный Новый Мир [Orthodox Xmas] [05:18]

Содержание индексной карты (.CUE)

REM GENRE ElectronicREM DATE 2009REM DISCID 29115F13REM COMMENT "ExactAudioCopy v1.0b4"PERFORMER "Технология"TITLE "Носитель Идей"FILE "Технология - Носитель Идей.flac" WAVE TRACK 01 AUDIO TITLE "Ctrl+Alt+Del" PERFORMER "Технология" INDEX 01 00:00:00 TRACK 02 AUDIO TITLE "Дивный Новый Мир" PERFORMER "Технология" INDEX 01 00:34:00 TRACK 03 AUDIO TITLE "Саморазрушение" PERFORMER "Технология" INDEX 01 05:30:53 TRACK 04 AUDIO TITLE "Ветер (Чёрно-белая Версия)" PERFORMER "Технология" INDEX 01 11:35:32 TRACK 05 AUDIO TITLE "Последнее Слово" PERFORMER "Технология" INDEX 01 16:12:45 TRACK 06 AUDIO TITLE "Камни" PERFORMER "Технология" INDEX 01 20:31:58 TRACK 07 AUDIO TITLE "Сделай Так" PERFORMER "Технология" INDEX 00 26:34:26 INDEX 01 26:35:21 TRACK 08 AUDIO TITLE "Новый Путь" PERFORMER "Технология" INDEX 01 30:47:53 TRACK 09 AUDIO TITLE "Слава Роботам!" PERFORMER "Технология" INDEX 01 35:35:16 TRACK 10 AUDIO TITLE "Ode To Joy" PERFORMER "Технология" INDEX 01 39:25:53 TRACK 11 AUDIO TITLE "Латекс" PERFORMER "Технология" INDEX 01 39:50:15 TRACK 12 AUDIO TITLE "Невозможная Связь" PERFORMER "Технология" INDEX 01 44:45:55 TRACK 13 AUDIO TITLE "Ночной Прохожий" PERFORMER "Технология" INDEX 01 46:28:42 TRACK 14 AUDIO TITLE "Люди" PERFORMER "Технология" INDEX 01 52:19:43 TRACK 15 AUDIO TITLE "Дайте Огня" PERFORMER "Технология" INDEX 01 56:58:57 TRACK 16 AUDIO TITLE "This Is Just The End" PERFORMER "Технология" INDEX 01 62:14:52 TRACK 17 AUDIO TITLE "Носитель Идей " PERFORMER "Технология" INDEX 01 64:15:71 TRACK 18 AUDIO TITLE "Дивный Новый Мир [Digital Machine Dub]" PERFORMER "Технология" INDEX 01 64:45:72 TRACK 19 AUDIO TITLE "Дивный Новый Мир [Orthodox Xmas]" PERFORMER "Технология" INDEX 01 68:48:50

Лог auCDtect Task Manager

-----------------------
DON'T MODIFY THIS FILE
-----------------------
PERFORMER: auCDtect Task Manager, ver. 1.6.0 RC1 build 1.6.0.1Copyright (c) 2008-2010 y-soft. All rights reservedhttp://y-soft.org
ANALYZER: auCDtect: CD records authenticity detector, version 0.8.2Copyright (c) 2004 Oleg Berngardt. All rights reserved.Copyright (c) 2004 Alexander Djourik. All rights reserved.
FILE: Технология - Носитель Идей.flac Size: 539862611 Hash: 523D046234CA52287CA575339053A388 Accuracy: -m0 Conclusion: CDDA 100% Signature: 629C6CC5558C2AB38E438500CD423EA9EBEE42C7

CD 17 - 2009 - Латекс (E. P.) (00:32:53)

Треклист
01. Латекс [Extra Strong] [07:10]
02. Alpha [04:14]
03. Весна [04:39]
04. Оптимистический Блюз [04:31]
05. Descending Robots [03:39]
06. Латекс [Mad Conductor] [04:20]
07. Латекс [Ultra Sensitive] [04:17]

Содержание отредактированной индексной карты (.CUE)

REM GENRE ElectronicREM DISCID 6807B607REM COMMENT "ExactAudioCopy v1.0b5"PERFORMER "Технология"TITLE "Латекс e.p."FILE "00 Ctrl+Alt+Del [Extended Partition].flac" WAVE TRACK 01 AUDIO TITLE "Латекс [Extra Strong]" PERFORMER "Технология" INDEX 00 00:00:00FILE "01 Латекс [Extra Strong].flac" WAVE INDEX 01 00:00:00FILE "02 Alpha.flac" WAVE TRACK 02 AUDIO TITLE "Alpha" PERFORMER "Технология" INDEX 01 00:00:00FILE "03 Весна.flac" WAVE TRACK 03 AUDIO TITLE "Весна" PERFORMER "Технология" INDEX 01 00:00:00FILE "04 Оптимистический Блюз.flac" WAVE TRACK 04 AUDIO TITLE "Оптимистический Блюз" PERFORMER "Технология" INDEX 01 00:00:00FILE "05 Descending Robots.flac" WAVE TRACK 05 AUDIO TITLE "Descending Robots" PERFORMER "Технология" INDEX 01 00:00:00FILE "06 Латекс [Mad Conductor].flac" WAVE TRACK 06 AUDIO TITLE "Латекс [Mad Conductor]" PERFORMER "Технология" INDEX 01 00:00:00FILE "07 Латекс [Ultra Sensitive].flac" WAVE TRACK 07 AUDIO TITLE "Латекс [Ultra Sensitive]" PERFORMER "Технология" INDEX 01 00:00:00

Сгенерированная ЕАС индексная карта (.CUE)

REM GENRE ElectronicREM DISCID 6807B607REM COMMENT "ExactAudioCopy v1.0b5"PERFORMER "Технология"TITLE "Латекс e.p."FILE "01 Латекс [Extra Strong].flac" WAVE TRACK 01 AUDIO TITLE "Латекс [Extra Strong]" PERFORMER "Технология" PREGAP 03:48:18 INDEX 01 00:00:00FILE "02 Alpha.flac" WAVE TRACK 02 AUDIO TITLE "Alpha" PERFORMER "Технология" INDEX 01 00:00:00FILE "03 Весна.flac" WAVE TRACK 03 AUDIO TITLE "Весна" PERFORMER "Технология" INDEX 01 00:00:00FILE "04 Оптимистический Блюз.flac" WAVE TRACK 04 AUDIO TITLE "Оптимистический Блюз" PERFORMER "Технология" INDEX 01 00:00:00FILE "05 Descending Robots.flac" WAVE TRACK 05 AUDIO TITLE "Descending Robots" PERFORMER "Технология" INDEX 01 00:00:00FILE "06 Латекс [Mad Conductor].flac" WAVE TRACK 06 AUDIO TITLE "Латекс [Mad Conductor]" PERFORMER "Технология" INDEX 01 00:00:00FILE "07 Латекс [Ultra Sensitive].flac" WAVE TRACK 07 AUDIO TITLE "Латекс [Ultra Sensitive]" PERFORMER "Технология" INDEX 01 00:00:00

Дополнительная информация

Согласно информации на сайте группы, лимитированное (всего 500 индивидуально пронумерованных вручную экземпляров) издание этого мини-альбома содержит 7 треков + 1 скрытый.
Для того, чтобы прослушать скрытый трек, нужно включить воспроизведение диска, затем, не останавливая воспроизведения, нажать кнопку ускоренного воспроизведения в обратном направлении и "перемотать" к началу диска. Дойдя до начала самого первого трека, нужно продолжать "перематывать", пока счётчик на дисплее плеера не покажет -03:48. По крайней мере, так советуют "знатоки" в интернете. Мой проигрыватель отказался показывать "обратное" время, когда при ускоренном воспроизведении в обратном направлении достиг начала первого трека. Ускоренное воспроизведение при этом не прервалось, что было понятно по характерному звуку в динамиках. Однако счётчик показывал только 00:00. Когда по звуку стало понятно, что я нахожусь уже в самом начале скрытого трека, я отпустил кнопку ускоренного воспроизведения и скрытый трек начал воспроизводиться. Перебирая варианты отображения информации на дисплее плеера, можно было увидеть, что плеер считает скрытый трек первым, при этом счётчик упорно не желал отсчитывать время воспроизведения трека, индицируя сплошные нули, и лишь дойдя до начала первого трека, начал отсчёт.
На форуме сайта группы в соответствующем топике раскрывается название скрытого трека: Пройдя по ссылке, можно действительно не только услышать этот самый скрытый трек, но также найти ещё некоторое количество любопытного материала

CD 18 - 2011 - Начальник Вселенной (00:54:55)

Треклист
01. Начальник Вселенной (Original Universion 2007) [04:35]
02. Начальник Вселенной (EDLands Radio Mix) [03:39]
03. Начальник Вселенной (Stanislav Kastorski Remix) [05:44]
04. Спутник-2 [03:30]
05. Начальник Вселенной (Jesus In Trance Remix) [05:06]
06. Начальник Вселенной (17 Years After Dummy Mix) [04:04]
07. Начальник Вселенной (Supremo Mix) [04:39]
08. Восток-1 [03:43]
09. Начальник Вселенной (EDLands Extended Club Mix) [06:54]
10. Начальник Вселенной (Digital Machine Remix) [05:29]
11. Начальник Вселенной (Red Mix) [03:46]
12. Начальник Вселенной - Технология & Чугунный Скороход [03:40]

Содержание индексной карты (.CUE)

REM GENRE ElectronicREM DATE 2011REM DISCID AE0CDF0CREM COMMENT "ExactAudioCopy v1.0b4"PERFORMER "Технология"TITLE "Начальник Вселенной"FILE "Технология - Начальник Вселенной.flac" WAVE TRACK 01 AUDIO TITLE "Начальник Вселенной (Original Universion 2007)" PERFORMER "Технология" INDEX 00 00:00:00 INDEX 01 04:39:07 TRACK 02 AUDIO TITLE "Начальник Вселенной (EDLands Radio Mix)" PERFORMER "Технология" INDEX 01 09:14:14 TRACK 03 AUDIO TITLE "Начальник Вселенной (Stanislav Kastorski Remix)" PERFORMER "Технология" INDEX 01 12:53:46 TRACK 04 AUDIO TITLE "Спутник-2" PERFORMER "Технология" INDEX 01 18:38:14 TRACK 05 AUDIO TITLE "Начальник Вселенной (Jesus In Trance Remix)" PERFORMER "Технология" INDEX 01 22:08:47 TRACK 06 AUDIO TITLE "Начальник Вселенной (17 Years After Dummy Mix)" PERFORMER "Технология" INDEX 01 27:14:59 TRACK 07 AUDIO TITLE "Начальник Вселенной (Supremo Mix)" PERFORMER "Технология" INDEX 01 31:19:40 TRACK 08 AUDIO TITLE "Восток-1" PERFORMER "Технология" INDEX 01 35:58:53 TRACK 09 AUDIO TITLE "Начальник Вселенной (EDLands Extended Club Mix)" PERFORMER "Технология" INDEX 01 39:42:25 TRACK 10 AUDIO TITLE "Начальник Вселенной (Digital Machine Remix)" PERFORMER "Технология" INDEX 01 46:37:01 TRACK 11 AUDIO TITLE "Начальник Вселенной (Red Mix)" PERFORMER "Технология" INDEX 01 52:06:58 TRACK 12 AUDIO TITLE "Начальник Вселенной - Технология & Чугунный Скороход" PERFORMER "Технология" INDEX 01 55:53:28

Лог auCDtect Task Manager

-----------------------
DON'T MODIFY THIS FILE
-----------------------
PERFORMER: auCDtect Task Manager, ver. 1.6.0 RC1 build 1.6.0.1Copyright (c) 2008-2010 y-soft. All rights reservedhttp://y-soft.org
ANALYZER: auCDtect: CD records authenticity detector, version 0.8.2Copyright (c) 2004 Oleg Berngardt. All rights reserved.Copyright (c) 2004 Alexander Djourik. All rights reserved.
FILE: Технология - Начальник Вселенной.flac Size: 387578243 Hash: B34C740D9A991C3CB9E452BB38A2BA60 Accuracy: -m0 Conclusion: CDDA 100% Signature: E199270F1DFC628B3EAE4B27D5102801EB092DB7

О группе

«Технология» — синти-поп-группа из Москвы. Пик популярности группы пришелся на 1991—1993 гг. В различных составах существует с 1990 года до нынешнего времени. Для создания музыки группа использует электронные музыкальные инструменты — синтезаторы, семплеры и современные компьютерные технологии.
[url=https://ru.wikipedia.org/wiki/%D0%A2%D0%B5%D1%85%D0%BD%D0%BE%D0%BB%D0%BE%D0%B3%D0%B8%D1%8F_(%D0%B3%D1%80%D1%83%D0%BF%D0%BF%D0%B0)]https://ru.wikipedia.org/wiki/%D0%A2%D0%B5%D1%85%D0...%BF%D0%BF%D0%B0)[/url]
Официальный сайт: http://www.tehnologia.info/
Купить диски группы "Технология" можно, например, здесь: http://popmarket.ru/

Состав

Сегодняшний состав:
Владимир Нечитайло — основной вокал
Роман Рябцев — лидер-гитара, основной вокал, музыка, тексты, клавишные
Матвей Юдов — клавишные, бэк-вокал
Стас Веселов — барабаны
Бывшие участники:
Леонид Величковский — клавишные, музыка, тексты, участник первого состава в 1990-1997 годах, с конца 1993 не находился в концертном составе.
Андрей Кохаев — барабаны, перкуссия, клавишные, участник группы в 1990—1993 и 2005—2011
Алексей Савостин — клавишные, компьютер, участник группы в 2003—2011
Валерий Васько — клавишные, участник концертного состава группы «Технология» в 1992—1993
Максим Величковский — клавишные, участник группы «Технология» времен альбома «Это война»
Виктор Буркапенков — клавишные, гитара, вокал, участник группы «Технология» времен альбома «Это война»
Кирилл Михайлов — барабаны, клавишные, участник группы «Технология» времен альбома «Это война»
--
[Профиль] [ЛС]

Создавать темы 13-Авг-2015 11:39 (спустя 2 месяца 13 дней)

Топик был перенесен из форума Дискографии (Отечественные) в форум Electronic music
sergej644
 
Кто просматривает тему:

Показать сообщения:    

Текущее время: Сегодня 05:20

Часовой пояс: GMT



Вы не можете начинать темы
Вы не можете отвечать на сообщения
Вы не можете редактировать свои сообщения
Вы не можете удалять свои сообщения
Вы не можете голосовать в опросах
Вы не можете прикреплять файлы к сообщениям
Вы не можете скачивать файлы