(Rock) [CD] Ray Wilson & Stiltskin - Unfulfillment - 2011, FLAC (tracks+.cue), lossless

 
Автор Сообщение

Создавать темы 20-Июл-2014 03:09

Ray Wilson & Stiltskin / Unfulfillment
Жанр: Rock
Носитель: CD
Год издания: 2011
Издатель (лейбл): Jaggy Polski
Номер по каталогу: WILSONCD011
Страна: Scotland
Аудиокодек: FLAC (*.flac)
Тип рипа: tracks+.cue
Битрейт аудио: lossless
Продолжительность: 00:57:08
Источник (релизер): what.cd (Niiky)
Наличие сканов в содержимом раздачи: да
Треклист:
01. Accidents Will Happen (3:47)
02. More Than Just a Memory (4:17)
03. The 7th Day (4:47)
04. American Beauty (4:08)
05. Voice of Disbelief (3:44)
06. First Day of Change (5:26)
07. Tale From a Small Town (5:01)
08. 14th March 1962 (4:31)
09. She Flies (5:15)
10. Guns of God (5:53)
11. Old Man and the Portrait (4:28)
12. Ought to Be Resting (5:53)

Лог создания рипа

Exact Audio Copy V1.0 beta 3 from 29. August 2011
EAC extraction logfile from 14. January 2013, 20:55
Ray Wilson & Stiltskin / Unfulfillment
Used drive : HL-DT-STDVD-ROM GDR8163B Adapter: 0 ID: 1
Read mode : SecureUtilize accurate stream : YesDefeat audio cache : YesMake use of C2 pointers : No
Read offset correction : 102Overread into Lead-In and Lead-Out : NoFill up missing offset samples with silence : YesDelete leading and trailing silent blocks : NoNull samples used in CRC calculations : YesUsed interface : Native Win32 interface for Win NT & 2000Gap handling : Appended to previous track
Used output format : User Defined EncoderSelected bitrate : 1024 kBit/sQuality : HighAdd ID3 tag : NoCommand line compressor : C:\Programme\Exact Audio Copy\Flac\flac.exeAdditional command line options : -8 -V -T "ARTIST=%artist%" -T "TITLE=%title%" -T "ALBUM=%albumtitle%" -T "DATE=%year%" -T "TRACKNUMBER=%tracknr%" -T "GENRE=%genre%" -T "PERFORMER=%albuminterpret%" -T "COMPOSER=%composer%" %haslyrics%--tag-from-file=LYRICS="%lyricsfile%"%haslyrics% -T "ALBUMARTIST=%albumartist%" -T "DISCNUMBER=%cdnumber%" -T "TOTALDISCS=%totalcds%" -T "TOTALTRACKS=%numtracks%" -T "COMMENT=%comment%" %source% -o %dest%
TOC of the extracted CD
Track | Start | Length | Start sector | End sector --------------------------------------------------------- 1 | 0:00.00 | 3:46.56 | 0 | 17005 2 | 3:46.56 | 4:17.03 | 17006 | 36283 3 | 8:03.59 | 4:46.42 | 36284 | 57775 4 | 12:50.26 | 4:07.64 | 57776 | 76364 5 | 16:58.15 | 3:43.53 | 76365 | 93142 6 | 20:41.68 | 5:26.30 | 93143 | 117622 7 | 26:08.23 | 5:01.01 | 117623 | 140198 8 | 31:09.24 | 4:30.70 | 140199 | 160518 9 | 35:40.19 | 5:14.58 | 160519 | 184126 10 | 40:55.02 | 5:52.46 | 184127 | 210572 11 | 46:47.48 | 4:27.59 | 210573 | 230656 12 | 51:15.32 | 5:52.59 | 230657 | 257115
Track 1
Filename C:\EAC What\01 - Accidents Will Happen.wav
Pre-gap length 0:00:02.00
Peak level 97.5 % Extraction speed 4.0 X Track quality 99.9 % Test CRC 88336904 Copy CRC 88336904 Accurately ripped (confidence 2) [AF641AF4] (AR v1) Copy OK
Track 2
Filename C:\EAC What\02 - More Than Just a Memory.wav
Pre-gap length 0:00:00.80
Peak level 100.0 % Extraction speed 4.8 X Track quality 99.9 % Test CRC CC5B86E0 Copy CRC CC5B86E0 Accurately ripped (confidence 2) [0B1BE4AC] (AR v1) Copy OK
Track 3
Filename C:\EAC What\03 - The 7th Day.wav
Pre-gap length 0:00:00.80
Peak level 100.0 % Extraction speed 6.1 X Track quality 100.0 % Test CRC 7D23D4CA Copy CRC 7D23D4CA Accurately ripped (confidence 2) [41BFB9B7] (AR v1) Copy OK
Track 4
Filename C:\EAC What\04 - American Beauty.wav
Pre-gap length 0:00:00.80
Peak level 98.6 % Extraction speed 5.8 X Track quality 99.9 % Test CRC AB42608D Copy CRC AB42608D Accurately ripped (confidence 2) [D1F0C0FE] (AR v1) Copy OK
Track 5
Filename C:\EAC What\05 - Voice of Disbelief.wav
Pre-gap length 0:00:00.80
Peak level 98.0 % Extraction speed 6.7 X Track quality 100.0 % Test CRC C9BEC69B Copy CRC C9BEC69B Accurately ripped (confidence 2) [05340C96] (AR v1) Copy OK
Track 6
Filename C:\EAC What\06 - First Day of Change.wav
Pre-gap length 0:00:00.80
Peak level 98.7 % Extraction speed 6.5 X Track quality 99.9 % Test CRC 704EBA05 Copy CRC 704EBA05 Accurately ripped (confidence 2) [FE6E4B82] (AR v1) Copy OK
Track 7
Filename C:\EAC What\07 - Tale From a Small Town.wav
Pre-gap length 0:00:00.80
Peak level 100.0 % Extraction speed 8.3 X Track quality 100.0 % Test CRC 65DCAA64 Copy CRC 65DCAA64 Accurately ripped (confidence 2) [4E5F513C] (AR v1) Copy OK
Track 8
Filename C:\EAC What\08 - 14th March 1962.wav
Pre-gap length 0:00:00.80
Peak level 100.0 % Extraction speed 6.8 X Track quality 99.9 % Test CRC 96121802 Copy CRC 96121802 Accurately ripped (confidence 2) [8740C327] (AR v1) Copy OK
Track 9
Filename C:\EAC What\09 - She Flies.wav
Pre-gap length 0:00:00.80
Peak level 98.7 % Extraction speed 9.0 X Track quality 100.0 % Test CRC E03AE5F9 Copy CRC E03AE5F9 Accurately ripped (confidence 2) [A8053918] (AR v1) Copy OK
Track 10
Filename C:\EAC What\10 - Guns of God.wav
Pre-gap length 0:00:00.80
Peak level 99.4 % Extraction speed 8.2 X Track quality 99.9 % Test CRC E78E5BED Copy CRC E78E5BED Accurately ripped (confidence 2) [1B63714B] (AR v1) Copy OK
Track 11
Filename C:\EAC What\11 - Old Man and the Portrait.wav
Pre-gap length 0:00:00.80
Peak level 99.9 % Extraction speed 7.0 X Track quality 99.9 % Test CRC C4E708CB Copy CRC C4E708CB Accurately ripped (confidence 2) [E925F0F0] (AR v1) Copy OK
Track 12
Filename C:\EAC What\12 - Ought to Be Resting.wav
Pre-gap length 0:00:00.80
Peak level 98.4 % Extraction speed 8.3 X Track quality 99.9 % Test CRC B278EED9 Copy CRC B278EED9 Accurately ripped (confidence 2) [3F3E7402] (AR v1) Copy OK
All tracks accurately ripped
No errors occurred
End of status report
---- CUETools DB Plugin V2.1.3
[CTDB TOCID: HXd5faq4ADkdlfw730pgkK54eTA-] found, Submit result: HXd5faq4ADkdlfw730pgkK54eTA- has been confirmed[0bca6810] (15/15) Accurately ripped
==== Log checksum 21A7E52173BB841DD2B5C1B847417C702CF66CD79CF91AEDB2913E6ADE95190A ====

Содержание индексной карты (.CUE)

REM DATE 2011REM DISCID 990D640CREM COMMENT "ExactAudioCopy v1.0b3"PERFORMER "Ray Wilson & Stiltskin"TITLE "Unfulfillment"FILE "01 - Accidents Will Happen.wav" WAVE TRACK 01 AUDIO TITLE "Accidents Will Happen" PERFORMER "Ray Wilson & Stiltskin" ISRC DEPA81100003 FLAGS DCP INDEX 01 00:00:00 TRACK 02 AUDIO TITLE "More Than Just a Memory" PERFORMER "Ray Wilson & Stiltskin" ISRC DEPA81100217 FLAGS DCP INDEX 00 03:45:71FILE "02 - More Than Just a Memory.wav" WAVE INDEX 01 00:00:00 TRACK 03 AUDIO TITLE "The 7th Day" PERFORMER "Ray Wilson & Stiltskin" ISRC DEPA81100218 FLAGS DCP INDEX 00 04:16:18FILE "03 - The 7th Day.wav" WAVE INDEX 01 00:00:00 TRACK 04 AUDIO TITLE "American Beauty" PERFORMER "Ray Wilson & Stiltskin" ISRC DEPA81100219 FLAGS DCP INDEX 00 04:45:57FILE "04 - American Beauty.wav" WAVE INDEX 01 00:00:00 TRACK 05 AUDIO TITLE "Voice of Disbelief" PERFORMER "Ray Wilson & Stiltskin" ISRC DEPA81100220 FLAGS DCP INDEX 00 04:07:04FILE "05 - Voice of Disbelief.wav" WAVE INDEX 01 00:00:00 TRACK 06 AUDIO TITLE "First Day of Change" PERFORMER "Ray Wilson & Stiltskin" ISRC DEPA81100004 FLAGS DCP INDEX 00 03:42:68FILE "06 - First Day of Change.wav" WAVE INDEX 01 00:00:00 TRACK 07 AUDIO TITLE "Tale From a Small Town" PERFORMER "Ray Wilson & Stiltskin" ISRC DEPA81100221 FLAGS DCP INDEX 00 05:25:45FILE "07 - Tale From a Small Town.wav" WAVE INDEX 01 00:00:00 TRACK 08 AUDIO TITLE "14th March 1962" PERFORMER "Ray Wilson & Stiltskin" ISRC DEPA81100222 FLAGS DCP INDEX 00 05:00:16FILE "08 - 14th March 1962.wav" WAVE INDEX 01 00:00:00 TRACK 09 AUDIO TITLE "She Flies" PERFORMER "Ray Wilson & Stiltskin" ISRC DEPA81100223 FLAGS DCP INDEX 00 04:30:10FILE "09 - She Flies.wav" WAVE INDEX 01 00:00:00 TRACK 10 AUDIO TITLE "Guns of God" PERFORMER "Ray Wilson & Stiltskin" ISRC DEPA81100224 FLAGS DCP INDEX 00 05:13:73FILE "10 - Guns of God.wav" WAVE INDEX 01 00:00:00 TRACK 11 AUDIO TITLE "Old Man and the Portrait" PERFORMER "Ray Wilson & Stiltskin" ISRC DEPA81100225 FLAGS DCP INDEX 00 05:51:61FILE "11 - Old Man and the Portrait.wav" WAVE INDEX 01 00:00:00 TRACK 12 AUDIO TITLE "Ought to Be Resting" PERFORMER "Ray Wilson & Stiltskin" ISRC DEPA81100226 FLAGS DCP INDEX 00 04:26:74FILE "12 - Ought to Be Resting.wav" WAVE INDEX 01 00:00:00

Об альбоме (сборнике)

http://www.raywilson.co.uk/
[url=http://en.wikipedia.org/wiki/Ray_Wilson_(musician)]http://en.wikipedia.org/wiki/Ray_Wilson_(musician)[/url]
http://www.youtube.com/watch?v=s51OMFOO0Po
 
Показать сообщения:    

Текущее время: Сегодня 16:40

Часовой пояс: GMT



Вы не можете начинать темы
Вы не можете отвечать на сообщения
Вы не можете редактировать свои сообщения
Вы не можете удалять свои сообщения
Вы не можете голосовать в опросах
Вы не можете прикреплять файлы к сообщениям
Вы не можете скачивать файлы