(Italo-Disco) [CD] VA - The Best Of Italo-Disco Vol. II (2CD) - 2010, FLAC (tracks+.cue), lossless

 
Автор Сообщение

sergej644 ®

Пол:

Стаж: 4 года 11 месяцев

Сообщений: 6041

Откуда: Soviet Union



Награды: Нет

Торрент-статистика

Создавать темы 20-Дек-2014 23:14

[Цитировать]

--The Best Of Italo-Disco Vol. II
Жанр: Italo-Disco
Носитель: CD
Страна-производитель диска: Россия
Год издания: 2010
Издатель (лейбл): ESonCD
Номер по каталогу: ESCD 2010-70002
Страна исполнителя (группы): N/A
Аудиокодек: FLAC (*.flac)
Тип рипа: tracks+.cue
Битрейт аудио: lossless
Источник (релизер): Ы-Ы
Наличие сканов в содержимом раздачи: да
Треклист:

CD1

[01[ Scotch - Disco Band (Vocal) 5:05
[02[ Chris Luis - The Heart Of The City (Vocal) 7:05
[03] Baby's Gang - Happy Song 5:34
[04] Tullio De Piscopo - Primavera (Stop Bajon) 7:12
[05] Flexi Cowboys - Sexy Movie 6:32
[06] Cyber People - Polaris 5:37
[07] Answering Service - Call Me Mr.Telephone (Vocal) 6:35
[08] Brian Martin - Sex Tonight (Vocal) 5:09
[09] Miko Mission - How Old Are You (Vocal) 7:15

CD2

[01] Dust Man - King Of The Ghetto 6:36
[02] Savage - Don't Cry Tonight 6:48
[03] Fake - Frogs In Spain 6:07
[04] Paul Sharada - Florida (Move Your Feet) 7:28
[05] Valerie Dore - The Night (Vocal) 5:46
[06] Ranko - Happy World (Vocal) 7:43
[07] Ken Laszlo - Hey Hey Guy (Vocal) 7:40
[08] Duke Lake - Satisfaction, Love & Passion 7:27
[09] Scotch - Penguins' Invasion 6:26

Лог создания рипа CD 1

Отчёт EAC об извлечении, выполненном 2. октября 2014, 12:50 для диска:
Various Artists / The Best Of Italo-Disco Vol. II [CD1]
Дисковод: ASUS    DRW-1814BLT   Adapter: 0  ID: 0
Режим чтения: Достоверный (C2: нет, Точный поток: да, Отключение кэша: да)
Коррекция смещения при чтении: 6
Способность читать области Lead-in и Lead-out : Нет
Выходной формат: Внутренние WAV-операции
                     44.100 Гц; 16 бит; стерео
Другие параметры:
    Заполнение пропущенных сэмплов тишиной : Да
    Удаление блоков с тишиной в начале и конце : Нет
    Встроенный Win32-интерфейс для Win NT/2000
Трек  1
     Имя файла D:\Music\Various Artists\[1984] The Best Of Italo-Disco Vol. II [CD1]\[01] Scotch - Disco Band (Vocal).wav
     Длина предзазора  0:00:02.00
     Пиковый уровень 100.0 %
     Качество трека 100.0 %
     CRC теста 1687E31C
     CRC копии 1687E31C
     Копирование... OK
Трек  2
     Имя файла D:\Music\Various Artists\[1984] The Best Of Italo-Disco Vol. II [CD1]\[02] Chris Luis - The Heart Of The City (Vocal).wav
     Длина предзазора  0:00:02.00
     Пиковый уровень 100.0 %
     Качество трека 100.0 %
     CRC теста 6CED60CE
     CRC копии 6CED60CE
     Копирование... OK
Трек  3
     Имя файла D:\Music\Various Artists\[1984] The Best Of Italo-Disco Vol. II [CD1]\[03] Baby's Gang - Happy Song.wav
     Длина предзазора  0:00:02.00
     Пиковый уровень 100.0 %
     Качество трека 99.9 %
     CRC теста 92029CAA
     CRC копии 92029CAA
     Копирование... OK
Трек  4
     Имя файла D:\Music\Various Artists\[1984] The Best Of Italo-Disco Vol. II [CD1]\[04] Tullio De Piscopo - Primavera (Stop Bajon).wav
     Длина предзазора  0:00:02.00
     Пиковый уровень 100.0 %
     Качество трека 100.0 %
     CRC теста 937A2DB4
     CRC копии 937A2DB4
     Копирование... OK
Трек  5
     Имя файла D:\Music\Various Artists\[1984] The Best Of Italo-Disco Vol. II [CD1]\[05] Flexi Cowboys - Sexy Movie.wav
     Длина предзазора  0:00:02.00
     Пиковый уровень 100.0 %
     Качество трека 99.9 %
     CRC теста 39EC6F2C
     CRC копии 39EC6F2C
     Копирование... OK
Трек  6
     Имя файла D:\Music\Various Artists\[1984] The Best Of Italo-Disco Vol. II [CD1]\[06] Cyber People - Polaris.wav
     Длина предзазора  0:00:02.00
     Пиковый уровень 97.6 %
     Качество трека 100.0 %
     CRC теста 7D53D541
     CRC копии 7D53D541
     Копирование... OK
Трек  7
     Имя файла D:\Music\Various Artists\[1984] The Best Of Italo-Disco Vol. II [CD1]\[07] Answering Service - Call Me Mr.Telephone (Vocal).wav
     Длина предзазора  0:00:02.00
     Пиковый уровень 100.0 %
     Качество трека 99.9 %
     CRC теста 7B99356A
     CRC копии 7B99356A
     Копирование... OK
Трек  8
     Имя файла D:\Music\Various Artists\[1984] The Best Of Italo-Disco Vol. II [CD1]\[08] Brian Martin - Sex Tonight (Vocal).wav
     Длина предзазора  0:00:02.00
     Пиковый уровень 100.0 %
     Качество трека 100.0 %
     CRC теста D433654A
     CRC копии D433654A
     Копирование... OK
Трек  9
     Имя файла D:\Music\Various Artists\[1984] The Best Of Italo-Disco Vol. II [CD1]\[09] Miko Mission - How Old Are You (Vocal).wav
     Длина предзазора  0:00:02.00
     Пиковый уровень 100.0 %
     Качество трека 99.9 %
     CRC теста 756E148C
     CRC копии 756E148C
     Копирование... OK
Ошибок не произошло
Конец отчёта

Содержание индексной карты (.CUE) CD 1

REM GENRE Italo-Disco
REM DATE 1984
REM DISCID 710D3109
REM COMMENT "ExactAudioCopy v0.95b3"
PERFORMER "Various Artists"
TITLE "The Best Of Italo-Disco Vol. II [CD1]"
FILE "[01] Scotch - Disco Band (Vocal).flac" WAVE
  TRACK 01 AUDIO
    TITLE "Disco Band (Vocal)"
    PERFORMER "Scotch"
    FLAGS DCP
    INDEX 01 00:00:00
FILE "[02] Chris Luis - The Heart Of The City (Vocal).flac" WAVE
  TRACK 02 AUDIO
    TITLE "The Heart Of The City (Vocal)"
    PERFORMER "Chris Luis"
    FLAGS DCP
    PREGAP 00:02:00
    INDEX 01 00:00:00
FILE "[03] Baby's Gang - Happy Song.flac" WAVE
  TRACK 03 AUDIO
    TITLE "Happy Song"
    PERFORMER "Baby's Gang"
    FLAGS DCP
    PREGAP 00:02:00
    INDEX 01 00:00:00
FILE "[04] Tullio De Piscopo - Primavera (Stop Bajon).flac" WAVE
  TRACK 04 AUDIO
    TITLE "Primavera (Stop Bajon)"
    PERFORMER "Tullio De Piscopo"
    FLAGS DCP
    PREGAP 00:02:00
    INDEX 01 00:00:00
FILE "[05] Flexi Cowboys - Sexy Movie.flac" WAVE
  TRACK 05 AUDIO
    TITLE "Sexy Movie"
    PERFORMER "Flexi Cowboys"
    FLAGS DCP
    PREGAP 00:02:00
    INDEX 01 00:00:00
FILE "[06] Cyber People - Polaris.flac" WAVE
  TRACK 06 AUDIO
    TITLE "Polaris"
    PERFORMER "Cyber People"
    FLAGS DCP
    PREGAP 00:02:00
    INDEX 01 00:00:00
FILE "[07] Answering Service - Call Me Mr.Telephone (Vocal).flac" WAVE
  TRACK 07 AUDIO
    TITLE "Call Me Mr.Telephone (Vocal)"
    PERFORMER "Answering Service"
    FLAGS DCP
    PREGAP 00:02:00
    INDEX 01 00:00:00
FILE "[08] Brian Martin - Sex Tonight (Vocal).flac" WAVE
  TRACK 08 AUDIO
    TITLE "Sex Tonight (Vocal)"
    PERFORMER "Brian Martin"
    FLAGS DCP
    PREGAP 00:02:00
    INDEX 01 00:00:00
FILE "[09] Miko Mission - How Old Are You (Vocal).flac" WAVE
  TRACK 09 AUDIO
    TITLE "How Old Are You (Vocal)"
    PERFORMER "Miko Mission"
    FLAGS DCP
    PREGAP 00:02:00
    INDEX 01 00:00:00

Лог создания рипа CD 2

Отчёт EAC об извлечении, выполненном 2. октября 2014, 15:24 для диска:
Various Artists / The Best Of Italo-Disco Vol. II [CD2]
Дисковод: ASUS    DRW-1814BLT   Adapter: 0  ID: 0
Режим чтения: Достоверный (C2: нет, Точный поток: да, Отключение кэша: да)
Коррекция смещения при чтении: 6
Способность читать области Lead-in и Lead-out : Нет
Выходной формат: Внутренние WAV-операции
                     44.100 Гц; 16 бит; стерео
Другие параметры:
    Заполнение пропущенных сэмплов тишиной : Да
    Удаление блоков с тишиной в начале и конце : Нет
    Встроенный Win32-интерфейс для Win NT/2000
Трек  1
     Имя файла D:\Music\Various Artists\[1984] The Best Of Italo-Disco Vol. II [CD2]\[01] Dust Man - King Of The Ghetto.wav
     Длина предзазора  0:00:02.00
     Пиковый уровень 100.0 %
     Качество трека 99.9 %
     CRC теста B7DBD501
     CRC копии B7DBD501
     Копирование... OK
Трек  2
     Имя файла D:\Music\Various Artists\[1984] The Best Of Italo-Disco Vol. II [CD2]\[02] Savage - Don't Cry Tonight.wav
     Длина предзазора  0:00:02.00
     Пиковый уровень 100.0 %
     Качество трека 100.0 %
     CRC теста 795C7D9B
     CRC копии 795C7D9B
     Копирование... OK
Трек  3
     Имя файла D:\Music\Various Artists\[1984] The Best Of Italo-Disco Vol. II [CD2]\[03] Fake - Frogs In Spain.wav
     Длина предзазора  0:00:02.00
     Пиковый уровень 98.8 %
     Качество трека 100.0 %
     CRC теста D18AA367
     CRC копии D18AA367
     Копирование... OK
Трек  4
     Имя файла D:\Music\Various Artists\[1984] The Best Of Italo-Disco Vol. II [CD2]\[04] Paul Sharada - Florida (Move Your Feet).wav
     Длина предзазора  0:00:02.00
     Пиковый уровень 100.0 %
     Качество трека 100.0 %
     CRC теста 7D4EC2B1
     CRC копии 7D4EC2B1
     Копирование... OK
Трек  5
     Имя файла D:\Music\Various Artists\[1984] The Best Of Italo-Disco Vol. II [CD2]\[05] Valerie Dore - The Night (Vocal).wav
     Длина предзазора  0:00:02.00
     Пиковый уровень 100.0 %
     Качество трека 99.9 %
     CRC теста 5A2760D1
     CRC копии 5A2760D1
     Копирование... OK
Трек  6
     Имя файла D:\Music\Various Artists\[1984] The Best Of Italo-Disco Vol. II [CD2]\[06] Ranko - Happy World (Vocal).wav
     Длина предзазора  0:00:02.00
     Пиковый уровень 88.1 %
     Качество трека 100.0 %
     CRC теста DDCD93B3
     CRC копии DDCD93B3
     Копирование... OK
Трек  7
     Имя файла D:\Music\Various Artists\[1984] The Best Of Italo-Disco Vol. II [CD2]\[07] Ken Laszlo - Hey Hey Guy (Vocal).wav
     Длина предзазора  0:00:02.00
     Пиковый уровень 98.3 %
     Качество трека 100.0 %
     CRC теста 88F3417E
     CRC копии 88F3417E
     Копирование... OK
Трек  8
     Имя файла D:\Music\Various Artists\[1984] The Best Of Italo-Disco Vol. II [CD2]\[08] Duke Lake - Satisfaction, Love & Passion.wav
     Длина предзазора  0:00:02.00
     Пиковый уровень 100.0 %
     Качество трека 100.0 %
     CRC теста B0C8CDEC
     CRC копии B0C8CDEC
     Копирование... OK
Трек  9
     Имя файла D:\Music\Various Artists\[1984] The Best Of Italo-Disco Vol. II [CD2]\[09] Scotch - Penguins' Invasion.wav
     Длина предзазора  0:00:02.00
     Пиковый уровень 92.2 %
     Качество трека 100.0 %
     CRC теста 4039B07A
     CRC копии 4039B07A
     Копирование... OK
Ошибок не произошло
Конец отчёта

Содержание индексной карты (.CUE) CD 2

REM GENRE Italo-Disco
REM DATE 1984
REM DISCID 710E9809
REM COMMENT "ExactAudioCopy v0.95b3"
PERFORMER "Various Artists"
TITLE "The Best Of Italo-Disco Vol. II [CD2]"
FILE "[01] Dust Man - King Of The Ghetto.flac" WAVE
  TRACK 01 AUDIO
    TITLE "King Of The Ghetto"
    PERFORMER "Dust Man"
    FLAGS DCP
    INDEX 01 00:00:00
FILE "[02] Savage - Don't Cry Tonight.flac" WAVE
  TRACK 02 AUDIO
    TITLE "Don't Cry Tonight"
    PERFORMER "Savage"
    FLAGS DCP
    PREGAP 00:02:00
    INDEX 01 00:00:00
FILE "[03] Fake - Frogs In Spain.flac" WAVE
  TRACK 03 AUDIO
    TITLE "Frogs In Spain"
    PERFORMER "Fake"
    FLAGS DCP
    PREGAP 00:02:00
    INDEX 01 00:00:00
FILE "[04] Paul Sharada - Florida (Move Your Feet).flac" WAVE
  TRACK 04 AUDIO
    TITLE "Florida (Move Your Feet)"
    PERFORMER "Paul Sharada"
    FLAGS DCP
    PREGAP 00:02:00
    INDEX 01 00:00:00
FILE "[05] Valerie Dore - The Night (Vocal).flac" WAVE
  TRACK 05 AUDIO
    TITLE "The Night (Vocal)"
    PERFORMER "Valerie Dore"
    FLAGS DCP
    PREGAP 00:02:00
    INDEX 01 00:00:00
FILE "[06] Ranko - Happy World (Vocal).flac" WAVE
  TRACK 06 AUDIO
    TITLE "Happy World (Vocal)"
    PERFORMER "Ranko"
    FLAGS DCP
    PREGAP 00:02:00
    INDEX 01 00:00:00
FILE "[07] Ken Laszlo - Hey Hey Guy (Vocal).flac" WAVE
  TRACK 07 AUDIO
    TITLE "Hey Hey Guy (Vocal)"
    PERFORMER "Ken Laszlo"
    FLAGS DCP
    PREGAP 00:02:00
    INDEX 01 00:00:00
FILE "[08] Duke Lake - Satisfaction, Love & Passion.flac" WAVE
  TRACK 08 AUDIO
    TITLE "Satisfaction, Love & Passion"
    PERFORMER "Duke Lake"
    FLAGS DCP
    PREGAP 00:02:00
    INDEX 01 00:00:00
FILE "[09] Scotch - Penguins' Invasion.flac" WAVE
  TRACK 09 AUDIO
    TITLE "Penguins' Invasion"
    PERFORMER "Scotch"
    FLAGS DCP
    PREGAP 00:02:00
    INDEX 01 00:00:00
[Профиль] [ЛС]

Создавать темы 13-Авг-2015 10:44 (спустя 7 месяцев 23 дня)

Топик был перенесен из форума Зарубежная в форум Technopop, Eurodance, Disco
sergej644
 
Показать сообщения:    

Текущее время: Сегодня 01:09

Часовой пояс: GMT



Вы не можете начинать темы
Вы не можете отвечать на сообщения
Вы не можете редактировать свои сообщения
Вы не можете удалять свои сообщения
Вы не можете голосовать в опросах
Вы не можете прикреплять файлы к сообщениям
Вы не можете скачивать файлы