(Pop, Pop-Dance) [CD] ДискоМафия - Хочется ! - 2007, APE (image+.cue), lossless

 
Автор Сообщение

sergej644 ®

Пол:

Стаж: 4 года 11 месяцев

Сообщений: 6038

Откуда: Soviet Union



Награды: Нет

Торрент-статистика

Создавать темы 15-Дек-2014 20:56

[Цитировать]

ДискоМафия
Хочется !
Жанр: Pop, Pop-Dance
Носитель: CD
Страна-производитель диска (релиза): РОССИЯ
Год издания: 2007
Издатель (лейбл): Монолит Рекордс
Номер по каталогу: МТ 715391-328-1
Аудиокодек: APE (*.ape)
Тип рипа: image+.cue
Битрейт аудио: lossless
Продолжительность: свой CD
Источник (релизер): 00:47:49
Наличие сканов в содержимом раздачи: да (PNG 600 dpi)-Треклист:
01 - Дайте денег! (03:45)
02 - Лето-Лето (03:39)
03 - Недопетые слова (с Надеждой Бабкиной) (04:36)
04 - Кольцо (с Кларой Новиковой) (03:52)
05 - Хочется! (04:24)
06 - Белая-белая (03:17)
07 - Море по колено (04:08)
08 - На соседней улице (с Надеждой Бабкиной) (04:05)
09 - Делай раз (03:44)
10 - Белая-белая (Latino-remix) (04:04)
11 - Лето-Лето (КАРАОКЕ) (03:39)
12 - Недопетые слова (КАРАОКЕ) (04:30)

Лог создания рипа

Exact Audio Copy V1.0 beta 3 from 29. August 2011
Отчёт EAC об извлечении, выполненном 14. декабря 2014, 16:35
ДискоМафия / Хочется !
Дисковод: SlimtypeDVD A  DS8A5SH   Adapter: 0  ID: 1
Режим чтения                 : Достоверность
Использование точного потока : Да
Отключение кэша аудио        : Да
Использование указателей C2  : Нет
Коррекция смещения при чтении                     : 6
Способность читать области Lead-in и Lead-out     : Нет
Заполнение пропущенных сэмплов тишиной            : Да
Удаление блоков с тишиной в начале и конце        : Нет
При вычислениях CRC использовались нулевые сэмплы : Да
Интерфейс                                         : Встроенный Win32-интерфейс для Win NT/2000
Выходной формат          : Пользовательский кодировщик
Выбранный битрейт        : 768 kBit/s
Качество                 : Высокий
Добавление ID3-тега      : Нет
Утилита сжатия           : C:\wapet.exe
Дополнительные параметры : %dest% -t "PUBLISHER=Монолит Рекордс" -t "CATNUM=МТ 715391-328-1" -t "Year=%year%" -t "Genre=%genre%" -t "Comment=%comment%" "C:\MAC-2013.exe" %source% %dest% -c3000
TOC извлечённого CD
     Трек |   Старт  | Длительность | Начальный сектор | Конечный сектор
    ---------------------------------------------------------------------
       1  |  0:00.00 |    3:45.49   |           0      |      16923
       2  |  3:45.49 |    3:39.56   |       16924      |      33404
       3  |  7:25.30 |    4:36.65   |       33405      |      54169
       4  | 12:02.20 |    3:52.50   |       54170      |      71619
       5  | 15:54.70 |    4:24.07   |       71620      |      91426
       6  | 20:19.02 |    3:17.42   |       91427      |     106243
       7  | 23:36.44 |    4:08.29   |      106244      |     124872
       8  | 27:44.73 |    4:05.61   |      124873      |     143308
       9  | 31:50.59 |    3:44.24   |      143309      |     160132
      10  | 35:35.08 |    4:04.69   |      160133      |     178501
      11  | 39:40.02 |    3:39.17   |      178502      |     194943
      12  | 43:19.19 |    4:30.15   |      194944      |     215208
      13  | 50:21.34 |    3:46.42   |      226609      |     243600
Характеристики диапазона извлечения и сообщения об ошибках
Выбранный диапазон
     Имя файла D:\!0\ДискоМафия -(2007)- Хочется\ДискоМафия - Хочется !.wav
     Пиковый уровень 97.7 %
     Скорость извлечения 2.1 X
     Качество диапазона 99.9 %
     CRC теста ECB7B055
     CRC копии ECB7B055
     Копирование... OK
Ошибок не произошло
AccurateRip: сводка
Трек  1  отсутствует в базе данных
Трек  2  отсутствует в базе данных
Трек  3  отсутствует в базе данных
Трек  4  отсутствует в базе данных
Трек  5  отсутствует в базе данных
Трек  6  отсутствует в базе данных
Трек  7  отсутствует в базе данных
Трек  8  отсутствует в базе данных
Трек  9  отсутствует в базе данных
Трек 10  отсутствует в базе данных
Трек 11  отсутствует в базе данных
Трек 12  отсутствует в базе данных
Ни одного трека нет в базе AccurateRip
Конец отчёта
==== Контрольная сумма отчёта 42236E9AF1C42F39837C46398515BD69B661D8CD26BB5712B32BD8AA8040631C ====

Лог проверки качества

-----------------------
DON'T MODIFY THIS FILE
-----------------------
PERFORMER: auCDtect Task Manager, ver. 1.6.0 RC1 build 1.6.0.1
Copyright (c) 2008-2010 y-soft. All rights reserved
http://y-soft.org
ANALYZER: auCDtect: CD records authenticity detector, version 0.8.2
Copyright (c) 2004 Oleg Berngardt. All rights reserved.
Copyright (c) 2004 Alexander Djourik. All rights reserved.
FILE: 12 - Недопетые слова (КАРАОКЕ).ape
  Size: 32426940 Hash: 4C65BAFF44B2FBE8409F6B336D29C4A5 Accuracy: -m0
  Conclusion: CDDA 100%
  Signature: D9D13D6872E86A56BA4DDF5367BEF0D925ECBF80
FILE: 11 - Лето-Лето (КАРАОКЕ).ape
  Size: 28971620 Hash: 2EB2129B3557B04D67F3C21D3B249E73 Accuracy: -m0
  Conclusion: CDDA 100%
  Signature: DAF72ED7D7AF14503E5F4013285B2B69BF6EFDEA
FILE: 10 - Белая-белая (Latino-remix).ape
  Size: 30931962 Hash: FAA6E180120C4CA474930108BFA236B4 Accuracy: -m0
  Conclusion: CDDA 100%
  Signature: 44F3442FA5EEADA8423059714857E7B6AEA02021
FILE: 09 - Делай раз.ape
  Size: 28938471 Hash: 3DE82282A682A2E847771218E36E332F Accuracy: -m0
  Conclusion: CDDA 100%
  Signature: A1F45AD9B7A64FFDA7626721D02E5180EAE0C4B1
FILE: 08 - На соседней улице (с Надеждой Бабкиной).ape
  Size: 33707849 Hash: C370000446FC7CBDE7EC9BD09BFE4CF1 Accuracy: -m0
  Conclusion: CDDA 100%
  Signature: 04D3C6C987410435E587208C8FC9A70E17E05666
FILE: 07 - Море по колено.ape
  Size: 32923760 Hash: 7535295E88934D57C6545B6A2C342932 Accuracy: -m0
  Conclusion: CDDA 100%
  Signature: 3C4E9071AF61217DB2C4A6F4214CAFF5837F0F60
FILE: 06 - Белая-белая.ape
  Size: 26149063 Hash: 89220F094ABE5F0EC3863ACC96BFAB28 Accuracy: -m0
  Conclusion: CDDA 100%
  Signature: 2933AC585180674DDA564940C93E92D4E8EAF3CA
FILE: 05 - Хочется!.ape
  Size: 34527217 Hash: 3A2DDB40C0DF3714D122E22D251722DC Accuracy: -m0
  Conclusion: CDDA 100%
  Signature: B42A1B16DA697604C47E8732F63682B1734F31B2
FILE: 04 - Кольцо (с Кларой Новиковой).ape
  Size: 31076355 Hash: BF80C5E843574A5F999E0B9BD79DD5C3 Accuracy: -m0
  Conclusion: CDDA 100%
  Signature: 945AD9AF72BB05884281FA6C3CA3C71EEBA0EB27
FILE: 03 - Недопетые слова (с Надеждой Бабкиной).ape
  Size: 36037626 Hash: BAF02491E9392926660F2EF1AD3F2BB1 Accuracy: -m0
  Conclusion: CDDA 99%
  Signature: 476D9B65B7CE2E5C1B488127A2466AA3619F5863
FILE: 02 - Лето-Лето.ape
  Size: 29467771 Hash: 5879B58E90975A9B40E11975C0CBEC11 Accuracy: -m0
  Conclusion: CDDA 100%
  Signature: 2919CFDD604CCD4F16885E6437E242CF8078BC13
FILE: 01 - Дайте денег!.ape
  Size: 28628116 Hash: E9269211472B872310C3DFC39E5372AF Accuracy: -m0
  Conclusion: CDDA 100%
  Signature: 0E5B923C79C9DD134D0F70C1DE30CAA238277421

Скриншот спектра частот

О доп. тэгах
В треках также прописаны:
Издатель – “PUBLISHER”
Номер по каталогу - “CATNUM”

Скриншот активации просмотра (Foobar2000)

-+bonus video:
Лето-Лето
Продолжительность: 3м 47с
Размер: 25.2 Мб
Видео: PAL 4:3 (400x288) WMV3, 25,000 кадр/сек, 780 Кбит/сек
Аудио: (WMA2, 2 ch) 128 Кбит/сек CBR, 44,1 КГц
Скриншоты видео-
[Профиль] [ЛС]

Создавать темы 13-Авг-2015 10:05 (спустя 7 месяцев 28 дней)

Топик был перенесен из форума Отечественная в форум Pop
sergej644
 
Кто просматривает тему:

Форум Тема Автор Размер
World Pop (Pop, Pop-Rock, Rock) Bee Gees - The Warner Bros. Years 1987-1991 (5CD Box Set Warner Music) - 2014 [FLAC, image+.cue, lossless] sergej644 2.32 GB
Показать сообщения:    

Текущее время: Сегодня 10:33

Часовой пояс: GMT



Вы не можете начинать темы
Вы не можете отвечать на сообщения
Вы не можете редактировать свои сообщения
Вы не можете удалять свои сообщения
Вы не можете голосовать в опросах
Вы не можете прикреплять файлы к сообщениям
Вы не можете скачивать файлы