(Hard\'n\'Heavy) [CD] VA - \'80s Metal Tribute To Van Halen - 2006, FLAC (tracks+.cue), lossless

 
Автор Сообщение

Создавать темы 20-Июл-2014 03:08

'80s Metal Tribute To Van Halen
Жанр: Hard'n'Heavy
Носитель: CD
Страна-производитель диска: USA
Год издания: 2006
Издатель (лейбл): Deadline Music
Номер по каталогу: CLP 1639-2
Страна: USA
Аудиокодек: FLAC (*.flac)
Тип рипа: tracks+.cue
Битрейт аудио: lossless
Продолжительность: 00:44:27
Источник (релизер): whatcd
Наличие сканов в содержимом раздачи: да
Треклист:
1. Ain't Talkin' 'Bout Love - Paul Dianno (3:50)
2. Unchained - Jack Russel, Dweezil Zappa, Marco Mendoza & Eric Singer (3:22)
3. I'm The One - Mark Slaughter, Doug Aldrich, Tim Bogert & Frankie Banali (3:38)
4. Panama - Jani Lane, George Lynch, Tony Franklin & Gregg Bissonette (3:25)
5. Ice Cream Man - Colby, Gilby Clarke, Frankie Wilsey & Fred Coury (3:25)
6. Atomic Punk - Fee Waybill, Brad Gillis, Tim Bognert & Frankie Banali (3:37)
7. Hot For Teacher - John Corabi, Bruce Kulick, Tony Franklin & Gregg Bissonette (4:43)
8. Runnin' With The Devil - Stephen Pearcy, Jake E. Lee, Tim Bogert & Frankie Banali (3:41)
9. Dance The Night Away - Joe Lynn Turner, Reb Beach, Marco Mendoza & Gregg Bissonette (3:21)
10. Yankee Rose - Enuff Z'Nuff (4:21)
11. So This Is Love? - Jeff Scott Soto, Blues Saraceno, Tony Franklin & Eric Singer (3:11)
12. Light Up The Sky - Doug Pinnick, Yngwie Malmsteen, Billy Sheehan & Vinnie Colaiuta (3:47)

Лог создания рипа

Exact Audio Copy V0.99 prebeta 5 from 4. May 2009
EAC extraction logfile from 24. September 2009, 12:34
Various Artists / '80s Metal Tribute To Van Halen
Used drive : MATSHITADVD-RAM UJE844S Adapter: 0 ID: 0
Read mode : SecureUtilize accurate stream : YesDefeat audio cache : YesMake use of C2 pointers : No
Read offset correction : 102Overread into Lead-In and Lead-Out : NoFill up missing offset samples with silence : YesDelete leading and trailing silent blocks : NoNull samples used in CRC calculations : YesUsed interface : Native Win32 interface for Win NT & 2000Gap handling : Appended to previous track
Used output format : User Defined EncoderSelected bitrate : 768 kBit/sQuality : HighAdd ID3 tag : NoCommand line compressor : C:\Program Files\Exact Audio Copy\FLAC\FLAC.EXEAdditional command line options : -8 -V -T "ARTIST=%a" -T "TITLE=%t" -T "ALBUM=%g" -T "DATE=%y" -T "TRACKNUMBER=%n" -T "GENRE=%m" -T "COMMENT=%e" %s -o %d
TOC of the extracted CD
Track | Start | Length | Start sector | End sector --------------------------------------------------------- 1 | 0:00.00 | 3:50.06 | 0 | 17255 2 | 3:50.06 | 3:22.69 | 17256 | 32474 3 | 7:13.00 | 3:38.62 | 32475 | 48886 4 | 10:51.62 | 3:25.23 | 48887 | 64284 5 | 14:17.10 | 3:25.44 | 64285 | 79703 6 | 17:42.54 | 3:37.10 | 79704 | 95988 7 | 21:19.64 | 4:43.25 | 95989 | 117238 8 | 26:03.14 | 3:42.34 | 117239 | 133922 9 | 29:45.48 | 3:21.10 | 133923 | 149007 10 | 33:06.58 | 4:21.26 | 149008 | 168608 11 | 37:28.09 | 3:12.04 | 168609 | 183012 12 | 40:40.13 | 3:47.50 | 183013 | 200087
Track 1
Filename C:\EACRips\01 - Paul Dianno (ex-IRON MAIDEN) - Ain't Talkin' 'Bout Love.wav
Pre-gap length 0:00:02.00
Peak level 97.7 % Track quality 100.0 % Test CRC 9A8B48D8 Copy CRC 9A8B48D8 Track not present in AccurateRip database Copy OK
Track 2
Filename C:\EACRips\02 - Jack Russell (GREAT WHITE) & Dweezil Zappa - Unchained.wav
Pre-gap length 0:00:01.00
Peak level 97.7 % Track quality 100.0 % Test CRC FD484B84 Copy CRC FD484B84 Track not present in AccurateRip database Copy OK
Track 3
Filename C:\EACRips\03 - Mark Slaughter (SLAUGHTER) - I'm The One.wav
Pre-gap length 0:00:01.00
Peak level 97.7 % Track quality 99.9 % Test CRC 65DB6633 Copy CRC 65DB6633 Track not present in AccurateRip database Copy OK
Track 4
Filename C:\EACRips\04 - Jani Lane (WARRANT) & George Lynch (ex-DOKKEN) - Panama.wav
Pre-gap length 0:00:01.00
Peak level 97.7 % Track quality 99.8 % Test CRC E2E8D381 Copy CRC E2E8D381 Track not present in AccurateRip database Copy OK
Track 5
Filename C:\EACRips\05 - Gilby Clark (ex-GUNS N' ROSES), Fred Coury (CINDERELLA), Frankie Wilsey (SEA HAGS) & Colby (HOLLYWWOD ROSES) - Ice Cream Man.wav
Pre-gap length 0:00:01.00
Peak level 97.7 % Track quality 100.0 % Test CRC 680EF46C Copy CRC 680EF46C Track not present in AccurateRip database Copy OK
Track 6
Filename C:\EACRips\06 - Fee Waybill (THE TUBES) & Brad Gillis (NIGHT RANGER) - Atomic Punk.wav
Pre-gap length 0:00:01.00
Peak level 97.7 % Track quality 99.7 % Test CRC 196E5FFB Copy CRC 606B74B9 Track not present in AccurateRip database Copy OK
Track 7
Filename C:\EACRips\07 - John Corabi (UNION) & Bruce Kulick (ex-KISS) - Hot For Teacher.wav
Pre-gap length 0:00:01.00
Peak level 97.7 % Track quality 99.9 % Test CRC BF8D63D4 Copy CRC A2ED6DC1 Track not present in AccurateRip database Copy OK
Track 8
Filename C:\EACRips\08 - Stephen Pearcy (RATT) & JAKE E. LEE (ex-OZZY OSBOURNE) - Runnin' With The Devil.wav
Pre-gap length 0:00:01.00
Peak level 97.7 % Track quality 99.9 % Test CRC DD3949B8 Copy CRC C34944F7 Track not present in AccurateRip database Copy OK
Track 9
Filename C:\EACRips\09 - Kevin Dubrow (QUIET RIOT) - Dance The Night Away.wav
Pre-gap length 0:00:01.00
Peak level 97.7 % Track quality 100.0 % Test CRC 11A5B1F9 Copy CRC 11A5B1F9 Track not present in AccurateRip database Copy OK
Track 10
Filename C:\EACRips\10 - Enuff Z'nuff - Yankee Rose.wav
Pre-gap length 0:00:01.00
Peak level 97.7 % Track quality 99.9 % Test CRC E866555F Copy CRC E866555F Track not present in AccurateRip database Copy OK
Track 11
Filename C:\EACRips\11 - Jeff Scott Soto & Blues Saraceno (ex-POISON) - So This Is Love .wav
Pre-gap length 0:00:01.00
Peak level 97.7 % Track quality 99.8 % Test CRC 2A0C5E3A Copy CRC 2A0C5E3A Track not present in AccurateRip database Copy OK
Track 12
Filename C:\EACRips\12 - Doug Pinick (KING'S X), Yngwie Malmsteen & Billy Sheehan (MR. BIG) - Light Up The Sky.wav
Pre-gap length 0:00:01.00
Peak level 97.7 % Track quality 100.0 % Test CRC D71E667F Copy CRC D71E667F Track not present in AccurateRip database Copy OK
None of the tracks are present in the AccurateRip database
No errors occurred
End of status report
------------------------------------------------------------
Exact Audio Copy V0.99 prebeta 5 from 4. May 2009
EAC extraction logfile from 24. September 2009, 13:08
Various Artists / '80s Metal Tribute To Van Halen
Used drive : MATSHITADVD-RAM UJE844S Adapter: 0 ID: 0
Read mode : SecureUtilize accurate stream : YesDefeat audio cache : YesMake use of C2 pointers : No
Read offset correction : 102Overread into Lead-In and Lead-Out : NoFill up missing offset samples with silence : YesDelete leading and trailing silent blocks : NoNull samples used in CRC calculations : YesUsed interface : Native Win32 interface for Win NT & 2000Gap handling : Appended to previous track
Used output format : User Defined EncoderSelected bitrate : 768 kBit/sQuality : HighAdd ID3 tag : NoCommand line compressor : C:\Program Files\Exact Audio Copy\FLAC\FLAC.EXEAdditional command line options : -8 -V -T "ARTIST=%a" -T "TITLE=%t" -T "ALBUM=%g" -T "DATE=%y" -T "TRACKNUMBER=%n" -T "GENRE=%m" -T "COMMENT=%e" %s -o %d
TOC of the extracted CD
Track | Start | Length | Start sector | End sector --------------------------------------------------------- 1 | 0:00.00 | 3:50.06 | 0 | 17255 2 | 3:50.06 | 3:22.69 | 17256 | 32474 3 | 7:13.00 | 3:38.62 | 32475 | 48886 4 | 10:51.62 | 3:25.23 | 48887 | 64284 5 | 14:17.10 | 3:25.44 | 64285 | 79703 6 | 17:42.54 | 3:37.10 | 79704 | 95988 7 | 21:19.64 | 4:43.25 | 95989 | 117238 8 | 26:03.14 | 3:42.34 | 117239 | 133922 9 | 29:45.48 | 3:21.10 | 133923 | 149007 10 | 33:06.58 | 4:21.26 | 149008 | 168608 11 | 37:28.09 | 3:12.04 | 168609 | 183012 12 | 40:40.13 | 3:47.50 | 183013 | 200087
Track 6
Filename C:\EACRips\06 - Fee Waybill (THE TUBES) & Brad Gillis (NIGHT RANGER) - Atomic Punk.wav
Pre-gap length 0:00:01.00
Peak level 97.7 % Track quality 99.8 % Test CRC 9B264639 Copy CRC 9B264639 Track not present in AccurateRip database Copy OK
None of the tracks are present in the AccurateRip database
No errors occurred
End of status report
------------------------------------------------------------
Exact Audio Copy V0.99 prebeta 5 from 4. May 2009
EAC extraction logfile from 24. September 2009, 13:21
Various Artists / '80s Metal Tribute To Van Halen
Used drive : MATSHITADVD-RAM UJE844S Adapter: 0 ID: 0
Read mode : SecureUtilize accurate stream : YesDefeat audio cache : YesMake use of C2 pointers : No
Read offset correction : 102Overread into Lead-In and Lead-Out : NoFill up missing offset samples with silence : YesDelete leading and trailing silent blocks : NoNull samples used in CRC calculations : YesUsed interface : Native Win32 interface for Win NT & 2000Gap handling : Appended to previous track
Used output format : User Defined EncoderSelected bitrate : 768 kBit/sQuality : HighAdd ID3 tag : NoCommand line compressor : C:\Program Files\Exact Audio Copy\FLAC\FLAC.EXEAdditional command line options : -8 -V -T "ARTIST=%a" -T "TITLE=%t" -T "ALBUM=%g" -T "DATE=%y" -T "TRACKNUMBER=%n" -T "GENRE=%m" -T "COMMENT=%e" %s -o %d
TOC of the extracted CD
Track | Start | Length | Start sector | End sector --------------------------------------------------------- 1 | 0:00.00 | 3:50.06 | 0 | 17255 2 | 3:50.06 | 3:22.69 | 17256 | 32474 3 | 7:13.00 | 3:38.62 | 32475 | 48886 4 | 10:51.62 | 3:25.23 | 48887 | 64284 5 | 14:17.10 | 3:25.44 | 64285 | 79703 6 | 17:42.54 | 3:37.10 | 79704 | 95988 7 | 21:19.64 | 4:43.25 | 95989 | 117238 8 | 26:03.14 | 3:42.34 | 117239 | 133922 9 | 29:45.48 | 3:21.10 | 133923 | 149007 10 | 33:06.58 | 4:21.26 | 149008 | 168608 11 | 37:28.09 | 3:12.04 | 168609 | 183012 12 | 40:40.13 | 3:47.50 | 183013 | 200087
Track 7
Filename C:\EACRips\07 - John Corabi (UNION) & Bruce Kulick (ex-KISS) - Hot For Teacher.wav
Pre-gap length 0:00:01.00
Peak level 97.7 % Track quality 99.8 % Test CRC BE506555 Copy CRC BE506555 Track not present in AccurateRip database Copy OK
None of the tracks are present in the AccurateRip database
No errors occurred
End of status report
------------------------------------------------------------
Exact Audio Copy V0.99 prebeta 5 from 4. May 2009
EAC extraction logfile from 24. September 2009, 13:34
Various Artists / '80s Metal Tribute To Van Halen
Used drive : MATSHITADVD-RAM UJE844S Adapter: 0 ID: 0
Read mode : SecureUtilize accurate stream : YesDefeat audio cache : YesMake use of C2 pointers : No
Read offset correction : 102Overread into Lead-In and Lead-Out : NoFill up missing offset samples with silence : YesDelete leading and trailing silent blocks : NoNull samples used in CRC calculations : YesUsed interface : Native Win32 interface for Win NT & 2000Gap handling : Appended to previous track
Used output format : User Defined EncoderSelected bitrate : 768 kBit/sQuality : HighAdd ID3 tag : NoCommand line compressor : C:\Program Files\Exact Audio Copy\FLAC\FLAC.EXEAdditional command line options : -8 -V -T "ARTIST=%a" -T "TITLE=%t" -T "ALBUM=%g" -T "DATE=%y" -T "TRACKNUMBER=%n" -T "GENRE=%m" -T "COMMENT=%e" %s -o %d
TOC of the extracted CD
Track | Start | Length | Start sector | End sector --------------------------------------------------------- 1 | 0:00.00 | 3:50.06 | 0 | 17255 2 | 3:50.06 | 3:22.69 | 17256 | 32474 3 | 7:13.00 | 3:38.62 | 32475 | 48886 4 | 10:51.62 | 3:25.23 | 48887 | 64284 5 | 14:17.10 | 3:25.44 | 64285 | 79703 6 | 17:42.54 | 3:37.10 | 79704 | 95988 7 | 21:19.64 | 4:43.25 | 95989 | 117238 8 | 26:03.14 | 3:42.34 | 117239 | 133922 9 | 29:45.48 | 3:21.10 | 133923 | 149007 10 | 33:06.58 | 4:21.26 | 149008 | 168608 11 | 37:28.09 | 3:12.04 | 168609 | 183012 12 | 40:40.13 | 3:47.50 | 183013 | 200087
Track 8
Filename C:\EACRips\08 - Stephen Pearcy (RATT) & JAKE E. LEE (ex-OZZY OSBOURNE) - Runnin' With The Devil.wav
Pre-gap length 0:00:01.00
Peak level 97.7 % Track quality 99.9 % Test CRC DD3949B8 Copy CRC DD3949B8 Track not present in AccurateRip database Copy OK
None of the tracks are present in the AccurateRip database
No errors occurred
End of status report

Содержание индексной карты (.CUE)

REM GENRE MetalREM DATE 2006REM DISCID A70A6B0CREM COMMENT "ExactAudioCopy v0.99pb5"PERFORMER "Various Artists"TITLE "'80s Metal Tribute To Van Halen"FILE "01 - Paul Dianno (ex-IRON MAIDEN) - Ain't Talkin' 'Bout Love.wav" WAVE TRACK 01 AUDIO TITLE "Ain't Talkin' 'Bout Love" PERFORMER "Paul Dianno (ex-IRON MAIDEN)" ISRC USDPS0600948 INDEX 01 00:00:00 TRACK 02 AUDIO TITLE "Unchained" PERFORMER "Jack Russell (GREAT WHITE) & Dweezil Zappa" ISRC USDPS0600949 INDEX 00 03:49:06FILE "02 - Jack Russell (GREAT WHITE) & Dweezil Zappa - Unchained.wav" WAVE INDEX 01 00:00:00 TRACK 03 AUDIO TITLE "I'm The One" PERFORMER "Mark Slaughter (SLAUGHTER)" ISRC USDPS0600950 INDEX 00 03:21:69FILE "03 - Mark Slaughter (SLAUGHTER) - I'm The One.wav" WAVE INDEX 01 00:00:00 TRACK 04 AUDIO TITLE "Panama" PERFORMER "Jani Lane (WARRANT) & George Lynch (ex-DOKKEN)" ISRC USDPS0600951 INDEX 00 03:37:62FILE "04 - Jani Lane (WARRANT) & George Lynch (ex-DOKKEN) - Panama.wav" WAVE INDEX 01 00:00:00 TRACK 05 AUDIO TITLE "Ice Cream Man" PERFORMER "Gilby Clark (ex-GUNS N' ROSES), Fred Coury (CINDERELLA), Frankie Wilsey (SEA ..." ISRC USDPS0600952 INDEX 00 03:24:23FILE "05 - Gilby Clark (ex-GUNS N' ROSES), Fred Coury (CINDERELLA), Frankie Wilsey (SEA HAGS) & Colby (HOLLYWWOD ROSES) - Ice Cream Man.wav" WAVE INDEX 01 00:00:00 TRACK 06 AUDIO TITLE "Atomic Punk" PERFORMER "Fee Waybill (THE TUBES) & Brad Gillis (NIGHT RANGER)" ISRC USDPS0600953 INDEX 00 03:24:44FILE "06 - Fee Waybill (THE TUBES) & Brad Gillis (NIGHT RANGER) - Atomic Punk.wav" WAVE INDEX 01 00:00:00 TRACK 07 AUDIO TITLE "Hot For Teacher" PERFORMER "John Corabi (UNION) & Bruce Kulick (ex-KISS)" ISRC USDPS0600954 INDEX 00 03:36:10FILE "07 - John Corabi (UNION) & Bruce Kulick (ex-KISS) - Hot For Teacher.wav" WAVE INDEX 01 00:00:00 TRACK 08 AUDIO TITLE "Runnin' With The Devil" PERFORMER "Stephen Pearcy (RATT) & JAKE E. LEE (ex-OZZY OSBOURNE)" ISRC USDPS0600955 INDEX 00 04:42:25FILE "08 - Stephen Pearcy (RATT) & JAKE E. LEE (ex-OZZY OSBOURNE) - Runnin' With The Devil.wav" WAVE INDEX 01 00:00:00 TRACK 09 AUDIO TITLE "Dance The Night Away" PERFORMER "Kevin Dubrow (QUIET RIOT)" ISRC USDPS0600956 INDEX 00 03:41:34FILE "09 - Kevin Dubrow (QUIET RIOT) - Dance The Night Away.wav" WAVE INDEX 01 00:00:00 TRACK 10 AUDIO TITLE "Yankee Rose" PERFORMER "Enuff Z'nuff" ISRC USDPS0600957 INDEX 00 03:20:10FILE "10 - Enuff Z'nuff - Yankee Rose.wav" WAVE INDEX 01 00:00:00 TRACK 11 AUDIO TITLE "So This Is Love?" PERFORMER "Jeff Scott Soto & Blues Saraceno (ex-POISON)" ISRC USDPS0600958 INDEX 00 04:20:26FILE "11 - Jeff Scott Soto & Blues Saraceno (ex-POISON) - So This Is Love .wav" WAVE INDEX 01 00:00:00 TRACK 12 AUDIO TITLE "Light Up The Sky" PERFORMER "Doug Pinick (KING'S X), Yngwie Malmsteen & Billy Sheehan (MR. BIG)" ISRC USDPS0600959 INDEX 00 03:11:04FILE "12 - Doug Pinick (KING'S X), Yngwie Malmsteen & Billy Sheehan (MR. BIG) - Light Up The Sky.wav" WAVE INDEX 01 00:00:00

Лог проверки качества

Скриншот спектра частот

Об исполнителе (группе)

http://ru.wikipedia.org/wiki/Van_Halen

Состав

Doug Aldrich Guitar, Primary Artist
Michael Anthony Composer
Frankie Banali Drums, Main Personnel, Primary Artist
Reb Beach Guitar, Primary Artist
Gregg Bissonette Drums, Primary Artist
Tim Bogert Bass, Guitar (Bass), Main Personnel, Primary Artist
Gilby Clarke Guitar, Primary Artist
Vinnie Colaiuta Drums, Primary Artist
John Corabi Primary Artist, Vocals
Fred Coury Drums, Primary Artist
Paul Di'Anno Main Personnel, Primary Artist, Vocals
Enuff Z'nuff Primary Artist
Anthony Focx Mastering
Tony Franklin Bass, Primary Artist
Brad Gillis Guitar, Main Personnel, Primary Artist
Bruce Kulick Guitar, Primary Artist
Jani Lane Primary Artist, Vocals
Jake E. Lee Guitar, Primary Artist
George Lynch Guitar, Primary Artist
Yngwie Malmsteen Guitar, Main Personnel, Primary Artist
Marco Mendoza Bass, Primary Artist
Jason Myers Liner Notes
Ricky Parent Drums
Stephen Pearcy Primary Artist, Vocals
Doug Pinnick Primary Artist, Vocals
David Lee Roth Composer
Jack Russell Main Personnel, Primary Artist, Vocals
Blues Saraceno Guitar, Primary Artist
Billy Sheehan Bass, Guitar (Bass), Main Personnel, Primary Artist
Mark Slaughter Primary Artist, Vocals
Jeff Scott Soto Primary Artist, Vocals
Joe Lynn Turner Primary Artist, Vocals
Alex Van Halen Composer
Eddie Van Halen Composer
Donnie Vie Vocals
Fee Waybill Primary Artist, Vocals
Frankie Wilsley Bass, Primary Artist
Dweezil Zappa Guitar, Primary Artist
Chip Znuff Bass
 
Кто просматривает тему:

Показать сообщения:    

Текущее время: Сегодня 16:24

Часовой пояс: GMT



Вы не можете начинать темы
Вы не можете отвечать на сообщения
Вы не можете редактировать свои сообщения
Вы не можете удалять свои сообщения
Вы не можете голосовать в опросах
Вы не можете прикреплять файлы к сообщениям
Вы не можете скачивать файлы