(Rock) [CD] Константин Никольский - Энциклопедия Российского Рока - 2003, FLAC (image+.cue), lossless

 
Автор Сообщение

sergej644 ®

Пол:

Стаж: 4 года 11 месяцев

Сообщений: 6044

Откуда: Soviet Union



Награды: Нет

Торрент-статистика

Создавать темы 13-Ноя-2014 15:27

[Цитировать]

--Константин Никольский / Энциклопедия Российского Рока
Жанр: Rock
Носитель: CD
Страна-производитель диска: Россия
Год издания: 2003
Издатель (лейбл): Grand Records
Номер по каталогу: GR CD 299
Аудиокодек: FLAC (*.flac)
Тип рипа: image+.cue
Битрейт аудио: lossless
Продолжительность: 76:37
Источник (релизер): AL1914
Наличие сканов в содержимом раздачи: нет
Треклист:
01. Мне только снится жизнь моя (5:26)
02. Я думал о многом и разном (2:36)
03. От любви к любви (5:32)
04. Спи, душа моя (4:38)
05. Прошедший день (5:13)
06. Я бреду по бездорожью (5:44)
07. Зеркало мира (5:10)
08. Один взгляд назад (3:40)
09. Ночная птица (4:22)
10. Мой друг художник и поэт (6:07)
11. В моей душе осадок зла (4:50)
12. Птицы белые мои (4:41)
13. Музыкант (5:19)
14. Я сам из тех... (3:56)
15. Воскресенье (6:27)
16. Когда поймешь умом... (2:52)

Лог создания рипа

Exact Audio Copy V1.0 beta 3 from 29. August 2011
Отчёт EAC об извлечении, выполненном 8. ноября 2014, 1:08
Константин Никольский / Энциклопедия Российского Рока
Дисковод: SlimtypeDVD A DS8A5SH Adapter: 0 ID: 1
Режим чтения : Достоверность
Использование точного потока : Да
Отключение кэша аудио : Да
Использование указателей C2 : Нет
Коррекция смещения при чтении : 6
Способность читать области Lead-in и Lead-out : Нет
Заполнение пропущенных сэмплов тишиной : Да
Удаление блоков с тишиной в начале и конце : Нет
При вычислениях CRC использовались нулевые сэмплы : Да
Интерфейс : Встроенный Win32-интерфейс для Win NT/2000
Выходной формат : Пользовательский кодировщик
Выбранный битрейт : 128 kBit/s
Качество : Высокий
Добавление ID3-тега : Нет
Утилита сжатия : C:\Program Files (x86)\FLAC\FLAC frontend.exe
Дополнительные параметры : -V -8 -T "Date=%year%" -T "Genre=%genre%" %source%
TOC извлечённого CD
Трек | Старт | Длительность | Начальный сектор | Конечный сектор
---------------------------------------------------------------------
1 | 0:00.00 | 5:26.26 | 0 | 24475
2 | 5:26.26 | 2:36.26 | 24476 | 36201
3 | 8:02.52 | 5:31.40 | 36202 | 61066
4 | 13:34.17 | 4:38.16 | 61067 | 81932
5 | 18:12.33 | 5:12.50 | 81933 | 105382
6 | 23:25.08 | 5:44.10 | 105383 | 131192
7 | 29:09.18 | 5:10.23 | 131193 | 154465
8 | 34:19.41 | 3:40.04 | 154466 | 170969
9 | 37:59.45 | 4:22.11 | 170970 | 190630
10 | 42:21.56 | 6:07.37 | 190631 | 218192
11 | 48:29.18 | 4:50.17 | 218193 | 239959
12 | 53:19.35 | 4:40.73 | 239960 | 261032
13 | 58:00.33 | 5:19.11 | 261033 | 284968
14 | 63:19.44 | 3:56.06 | 284969 | 302674
15 | 67:15.50 | 6:27.17 | 302675 | 331716
16 | 73:42.67 | 2:52.35 | 331717 | 344651
Характеристики диапазона извлечения и сообщения об ошибках
Выбранный диапазон
Имя файла D:\Константин Никольский - Энциклопедия Российского Рока (2003)\Константин Никольский - Энциклопедия Российского Рока.wav
Пиковый уровень 100.0 %
Скорость извлечения 3.3 X
Качество диапазона 100.0 %
CRC теста D77D5E2B
CRC копии D77D5E2B
Копирование... OK
Ошибок не произошло
AccurateRip: сводка
Трек 1 : извлечено точно (доверие 1) [3CD28B29] (AR v1)
Трек 2 : извлечено точно (доверие 1) [60124A18] (AR v1)
Трек 3 : извлечено точно (доверие 1) [154BD7A3] (AR v1)
Трек 4 : извлечено точно (доверие 1) [621065B3] (AR v1)
Трек 5 : извлечено точно (доверие 1) [3079C78D] (AR v1)
Трек 6 : извлечено точно (доверие 1) [2095862A] (AR v1)
Трек 7 : извлечено точно (доверие 1) [E2932BC0] (AR v1)
Трек 8 : извлечено точно (доверие 1) [F2337D46] (AR v1)
Трек 9 : извлечено точно (доверие 1) [911A0A6F] (AR v1)
Трек 10 : извлечено точно (доверие 1) [05583E07] (AR v1)
Трек 11 : извлечено точно (доверие 1) [FCAC3775] (AR v1)
Трек 12 : извлечено точно (доверие 1) [224FB791] (AR v1)
Трек 13 : извлечено точно (доверие 1) [5A843DD2] (AR v1)
Трек 14 : извлечено точно (доверие 1) [5921863D] (AR v1)
Трек 15 : извлечено точно (доверие 1) [D8E4B91A] (AR v1)
Трек 16 : извлечено точно (доверие 1) [CDEC1FF4] (AR v1)
Все треки извлечены точно
Конец отчёта
==== Контрольная сумма отчёта F56D486031874B2A15BCFB7157AF0567D6CE7596DBD2D2D5187CDA4456C43165 ====

Содержание индексной карты (.CUE)

REM GENRE Rock
REM DATE 2003
REM DISCID C611F310
REM COMMENT "ExactAudioCopy v1.0b3"
PERFORMER "Константин Никольский"
TITLE "Энциклопедия Российского Рока"
FILE "Константин Никольский - Энциклопедия Российского Рока.flac" WAVE
TRACK 01 AUDIO
TITLE "Мне только снится жизнь моя"
PERFORMER "Константин Никольский"
FLAGS DCP
INDEX 01 00:00:00
TRACK 02 AUDIO
TITLE "Я думал о многом и разном"
PERFORMER "Константин Никольский"
INDEX 00 05:24:26
INDEX 01 05:26:26
TRACK 03 AUDIO
TITLE "От любви к любви"
PERFORMER "Константин Никольский"
FLAGS DCP
INDEX 00 08:00:52
INDEX 01 08:02:52
TRACK 04 AUDIO
TITLE "Спи, душа моя"
PERFORMER "Константин Никольский"
FLAGS DCP
INDEX 00 13:32:17
INDEX 01 13:34:17
TRACK 05 AUDIO
TITLE "Прошедший день"
PERFORMER "Константин Никольский"
FLAGS DCP
INDEX 00 18:10:33
INDEX 01 18:12:33
TRACK 06 AUDIO
TITLE "Я бреду по бездорожью"
PERFORMER "Константин Никольский"
FLAGS DCP
INDEX 00 23:23:08
INDEX 01 23:25:08
TRACK 07 AUDIO
TITLE "Зеркало мира"
PERFORMER "Константин Никольский"
FLAGS DCP
INDEX 00 29:07:18
INDEX 01 29:09:18
TRACK 08 AUDIO
TITLE "Один взгляд назад"
PERFORMER "Константин Никольский"
FLAGS DCP
INDEX 00 34:17:41
INDEX 01 34:19:41
TRACK 09 AUDIO
TITLE "Ночная птица"
PERFORMER "Константин Никольский"
FLAGS DCP
INDEX 00 37:57:45
INDEX 01 37:59:45
TRACK 10 AUDIO
TITLE "Мой друг художник и поэт"
PERFORMER "Константин Никольский"
FLAGS DCP
INDEX 00 42:19:56
INDEX 01 42:21:56
TRACK 11 AUDIO
TITLE "В моей душе осадок зла"
PERFORMER "Константин Никольский"
FLAGS DCP
INDEX 00 48:27:18
INDEX 01 48:29:18
TRACK 12 AUDIO
TITLE "Птицы белые мои"
PERFORMER "Константин Никольский"
FLAGS DCP
INDEX 00 53:17:35
INDEX 01 53:19:35
TRACK 13 AUDIO
TITLE "Музыкант"
PERFORMER "Константин Никольский"
FLAGS DCP
INDEX 00 57:58:33
INDEX 01 58:00:33
TRACK 14 AUDIO
TITLE "Я сам из тех..."
PERFORMER "Константин Никольский"
FLAGS DCP
INDEX 00 63:17:44
INDEX 01 63:19:44
TRACK 15 AUDIO
TITLE "Воскресенье"
PERFORMER "Константин Никольский"
FLAGS DCP
INDEX 00 67:13:50
INDEX 01 67:15:50
TRACK 16 AUDIO
TITLE "Когда поймешь умом..."
PERFORMER "Константин Никольский"
FLAGS DCP
INDEX 00 73:40:67
INDEX 01 73:42:67

CD

[Профиль] [ЛС]

Создавать темы 13-Авг-2015 10:28 (спустя 8 месяцев 29 дней)

Топик был перенесен из форума Отечественная в форум Author's Song
sergej644
 
Кто просматривает тему:

Форум Тема Автор Размер
Rock (Rock) [CD] Ray Wilson & Stiltskin - Unfulfillment - 2011, FLAC (tracks+.cue), lossless bot 479 MB
Показать сообщения:    

Текущее время: Сегодня 14:24

Часовой пояс: GMT



Вы не можете начинать темы
Вы не можете отвечать на сообщения
Вы не можете редактировать свои сообщения
Вы не можете удалять свои сообщения
Вы не можете голосовать в опросах
Вы не можете прикреплять файлы к сообщениям
Вы не можете скачивать файлы