20000 лье под водой / 20000 Leagues Under the Sea (Ричард Флайшер / Richard Fleischer) [1954, США, Фантастика, фэнтези, драма, приключения, WEB-DLRip] MVO (Светла)

 
Автор Сообщение

Russian Mafia ®

Пол:

Стаж: 1 год 8 месяцев

Сообщений: 4256



Награды: 10 (Подробнее)

Top Releaser 3 (Количество: 1) Mega Seeder 1 (Количество: 1) Top Releaser 4 (Количество: 1)
Торрент-статистика

Создавать темы 27-Авг-2015 09:16

[Цитировать]

20000 лье под водой / 20000 Leagues Under the Sea- Год выпуска: 1954
Выпущено: США / Walt Disney Productions
Жанр: фантастика, фэнтези, драма, приключения
Продолжительность: 02:07:03
Перевод: Профессиональный (многоголосый закадровый) Светла
Cубтитры: нет-Режиссер:
Ричард Флайшер / Richard Fleischer-В ролях:
Кирк Дуглас, Джеймс Мейсон, Пол Лукас, Петер Лорре, Роберт Дж. Уилки, Тед де Корсия, Карлтон Янг, Дж. М. Кэрриган, Перси Хелтон, Тед Купер-Описание:
На календаре 1868 год и весь Сан-Франциско взбудоражен поступающими сообщениями о плавающем под водой огромном чудовище, которое может сожрать любое судно, если оно к нему приближается. Многие плавания отменены, и правительство вынуждено послать военный корабль исследовать и очистить море от «чудищ».
Корабль этот был потоплен неизвестным «существом», и только троим чудом удалось спастись: профессональному гарпунисту, профессору из Морского музея в Париже и его помощнику. Их вытаскивают из воды на эту чуду-юду, которое оказывается подводной лодкой Капитана Немо, ученого, изобретателя и радикального борца за мир. Он топит корабли с благородной целью покончить с войной на бескрайних водах мирового океана…--Качество: WEB-DLRip
Формат: AVI
Видео: 704x272 (2.59:1), 23.976 fps, XviD build 73 ~1442 kbps avg, 0.31 bit/pixel
Аудио: 48 kHz, AC3 Dolby Digital, 1/0 (C) ch, ~192.00 kbps avg
-

Скриншоты

MediaInfo

General
Complete name                            : D:\20000_lie_pod_vodoi_1954_WEB_DLRip_by_Dalemake.avi
Format                                   : AVI
Format/Info                              : Audio Video Interleave
File size                                : 1.46 GiB
Duration                                 : 2h 7mn
Overall bit rate                         : 1 644 Kbps
Writing application                      : VirtualDubMod 1.5.10.3 | www.virtualdub-fr.org || (build 2550/release)
Writing library                          : VirtualDubMod build 2550/release
Video
ID                                       : 0
Format                                   : MPEG-4 Visual
Format profile                           : Advanced Simple@L5
Format settings, BVOP                    : 1
Format settings, QPel                    : No
Format settings, GMC                     : No warppoints
Format settings, Matrix                  : Custom
Codec ID                                 : XVID
Codec ID/Hint                            : XviD
Duration                                 : 2h 7mn
Bit rate                                 : 1 442 Kbps
Width                                    : 704 pixels
Height                                   : 272 pixels
Display aspect ratio                     : 2.588
Frame rate                               : 23.976 fps
Color space                              : YUV
Chroma subsampling                       : 4:2:0
Bit depth                                : 8 bits
Scan type                                : Progressive
Compression mode                         : Lossy
Bits/(Pixel*Frame)                       : 0.314
Stream size                              : 1.28 GiB (88%)
Writing library                          : XviD 73
Audio
ID                                       : 1
Format                                   : AC-3
Format/Info                              : Audio Coding 3
Mode extension                           : CM (complete main)
Format settings, Endianness              : Big
Codec ID                                 : 2000
Duration                                 : 2h 7mn
Bit rate mode                            : Constant
Bit rate                                 : 192 Kbps
Channel(s)                               : 1 channel
Channel positions                        : Front: C
Sampling rate                            : 48.0 KHz
Bit depth                                : 16 bits
Compression mode                         : Lossy
Stream size                              : 174 MiB (12%)
Alignment                                : Split accross interleaves
Interleave, duration                     : 42 ms (1.00 video frame)
Interleave, preload duration             : 500 ms
[Профиль] [ЛС]
Кто просматривает тему:

Форум Тема Автор Размер
Фильмы (HD DVD, Blu-ray и BDRemux) 20000 лье под водой / 20000 Leagues Under the Sea (1954) Blu-Ray Remux 1080p | P ODESSA 20.59 GB
Показать сообщения:    

Текущее время: Сегодня 04:23

Часовой пояс: GMT



Вы не можете начинать темы
Вы не можете отвечать на сообщения
Вы не можете редактировать свои сообщения
Вы не можете удалять свои сообщения
Вы не можете голосовать в опросах
Вы не можете прикреплять файлы к сообщениям
Вы не можете скачивать файлы