20 000 дней на Земле / 20,000 Days on Earth (Ян Форсайт & Джейн Поллард / Iain Forsyth & Jane Pollard) [2014, Документальный, драма, музыка, BDRip 1080p]

 
Автор Сообщение

TorrentFilm ®

Пол:

Стаж: 2 года

Сообщений: 7741



Награды: Нет

Торрент-статистика

Создавать темы 27-Янв-2015 00:00

[Цитировать]

20 000 дней на Земле / 20,000 Days on Earth
Год выпуска: 2014
Страна: Великобритания
Студия: British Film Institute (BFI), Corniche Pictures, Film4, Pulse Films
Жанр: Документальный, музыка
Продолжительность: 01:33:21
Перевод: Любительский (одноголосый закадровый)
Доп. инфо о переводе: Lord32x
Русские субтитры: есть
Режиссер: Ян Форсайт & Джейн Поллард / Iain Forsyth & Jane Pollard
В ролях: Ник Кейв, Сьюзи Бик, Уоррен Эллис, Дариан Лидер, Рэй Уинстон, Бликса Баргельд, Кайли Миноуг, Артур Кейв, Эрл Кейв, Томас Уилдлер, Мартин Кэйси, Конуэй Сэвэдж, Бэрри Адамсон, Кирк Лэйк, Лиззи Филипс
Описание: Писатель и музыкант Ник Кейв отмечает свой 20000-й день на планете Земля… Прожить с ним целый день. День, перенасыщенный событиями, музыкой и, главное, воспоминаниями. Воспоминаниями о том, что было ли на самом деле? Кейву удалось действительно стать той самой рок-звездой, о которой он говорит - недосягаемой, сильной. Это уже не человек. Это чистой воды миф. Стоит ли его разрушать? Стоит ли пытаться отделить правду от вымысла? Музыка окутывает тебя, словно кокон, заглушая посторонние звуки и мысли, только проповедь звучит и звучит в голове, как будто монотонная, но вместе с тем прекрасная. Перед глазами сменяются грациозно кадры, ты сидишь в своём кресле, и действительно молишься (not to God above, but to you), чтобы это не заканчивалось. Не сейчас…
Тип релиза: BDRip 1080p
Контейнер: MKV
Видео: 1920x800 (2.40:1) at 25 fps, AVC at 8775 kbps avg, 0.229 bit/pixel
Аудио 1: RUS VO (Lord32x) - AC3, 48 kHz, 3/2 (L,C,R,l,r) + LFE ch, 448 kbps
Аудио 2: ENG Original - DTS, 48 kHz, 3/2 (L,C,R,l,r) + LFE ch, 1510 kbps (24-bit)
Аудио 3: ENG Original - AC3, 48 kHz, 3/2 (L,C,R,l,r) + LFE ch, 448 kbps
Формат субтитров: softsub (SRT)
Субтитры: Русские, английские (Full + SDH)

MediaInfo

GeneralUnique ID : 222705727464445866861883048978458138440 (0xA78B901C3F83F8958BC77C0E39D8D748)Complete name : 20000.Days.on.Earth.2014.x264.BDRip.1080p.HDLine.mkvFormat : MatroskaFormat version : Version 2File size : 7.25 GiBDuration : 1h 33mnOverall bit rate : 11.1 MbpsMovie name : 20000.Days.on.Earth.2014.x264.BDRip.1080p.HDLineEncoded date : UTC 2015-01-23 19:35:08Writing application : mkvmerge v7.5.0 ('Glass Culture') 64bit built on Jan 4 2015 16:48:44Writing library : libebml v1.3.1 + libmatroska v1.4.2Attachements : Cover.jpgDURATION : 01:33:20.864000000NUMBER_OF_FRAMES : 175027NUMBER_OF_BYTES : 268841472_STATISTICS_WRITING_APP : mkvmerge v7.5.0 ('Glass Culture') 64bit built on Jan 4 2015 16:48:44_STATISTICS_WRITING_DATE_UTC : 2015-01-23 19:35:08_STATISTICS_TAGS : BPS DURATION NUMBER_OF_FRAMES NUMBER_OF_BYTES
VideoID : 1Format : AVCFormat/Info : Advanced Video CodecFormat profile : High@L4.1Format settings, CABAC : YesFormat settings, ReFrames : 4 framesCodec ID : V_MPEG4/ISO/AVCDuration : 1h 33mnBit rate : 8 775 KbpsWidth : 1 920 pixelsHeight : 800 pixelsDisplay aspect ratio : 2.40:1Frame rate mode : ConstantFrame rate : 25.000 fpsColor space : YUVChroma subsampling : 4:2:0Bit depth : 8 bitsScan type : ProgressiveBits/(Pixel*Frame) : 0.229Stream size : 5.58 GiB (77%)Title : 20 000 дней на Земле (2014)Writing library : x264 core 144 r2525kMod 40bb568Encoding settings : cabac=1 / ref=5 / deblock=1:0:0 / analyse=0x3:0x133 / me=umh / subme=10 / psy=1 / fade_compensate=0.00 / psy_rd=1.00:0.00 / mixed_ref=1 / me_range=24 / chroma_me=1 / trellis=2 / 8x8dct=1 / cqm=0 / deadzone=21,11 / fast_pskip=1 / chroma_qp_offset=-2 / threads=10 / lookahead_threads=1 / sliced_threads=0 / nr=0 / decimate=1 / interlaced=0 / bluray_compat=1 / constrained_intra=0 / fgo=0 / bframes=3 / b_pyramid=1 / b_adapt=2 / b_bias=0 / direct=3 / weightb=1 / open_gop=0 / weightp=1 / keyint=250 / keyint_min=1 / scenecut=40 / intra_refresh=0 / rc_lookahead=60 / rc=2pass / mbtree=1 / bitrate=8775 / ratetol=1.0 / qcomp=0.60 / qpmin=0 / qpmax=69 / qpstep=4 / cplxblur=20.0 / qblur=0.5 / ip_ratio=1.40 / aq=1:1.00Language : EnglishDefault : YesForced : NoDURATION : 01:33:20.680000000NUMBER_OF_FRAMES : 140017NUMBER_OF_BYTES : 6144388828_STATISTICS_WRITING_APP : mkvmerge v7.5.0 ('Glass Culture') 64bit built on Jan 4 2015 16:48:44_STATISTICS_WRITING_DATE_UTC : 2015-01-23 19:35:08_STATISTICS_TAGS : BPS DURATION NUMBER_OF_FRAMES NUMBER_OF_BYTES
Audio #1ID : 2Format : AC-3Format/Info : Audio Coding 3Mode extension : CM (complete main)Format settings, Endianness : BigCodec ID : A_AC3Duration : 1h 33mnBit rate mode : ConstantBit rate : 384 KbpsChannel(s) : 6 channelsChannel positions : Front: L C R, Side: L R, LFESampling rate : 48.0 KHzBit depth : 16 bitsCompression mode : LossyStream size : 256 MiB (3%)Title : VO (Lord32x) - AC3 5.1 48KHz@448kbpsLanguage : RussianDefault : NoForced : No
Audio #2ID : 3Format : DTSFormat/Info : Digital Theater SystemsMode : 16Format settings, Endianness : BigCodec ID : A_DTSDuration : 1h 33mnBit rate mode : ConstantBit rate : 1 509 KbpsChannel(s) : 6 channelsChannel positions : Front: L C R, Side: L R, LFESampling rate : 48.0 KHzBit depth : 24 bitsCompression mode : LossyStream size : 1 008 MiB (14%)Title : DTS 5.1 48KHz@1509kbps (24-bit)Language : EnglishDefault : NoForced : No
Audio #3ID : 4Format : AC-3Format/Info : Audio Coding 3Mode extension : CM (complete main)Format settings, Endianness : BigCodec ID : A_AC3Duration : 1h 33mnBit rate mode : ConstantBit rate : 448 KbpsChannel(s) : 6 channelsChannel positions : Front: L C R, Side: L R, LFESampling rate : 48.0 KHzBit depth : 16 bitsCompression mode : LossyStream size : 299 MiB (4%)Title : AC3 5.1 48KHz@448kbpsLanguage : EnglishDefault : NoForced : No
Text #1ID : 5Format : UTF-8Codec ID : S_TEXT/UTF8Codec ID/Info : UTF-8 Plain TextLanguage : RussianDefault : NoForced : No
Text #2ID : 6Format : UTF-8Codec ID : S_TEXT/UTF8Codec ID/Info : UTF-8 Plain TextLanguage : EnglishDefault : NoForced : No
Text #3ID : 7Format : UTF-8Codec ID : S_TEXT/UTF8Codec ID/Info : UTF-8 Plain TextTitle : SDHLanguage : EnglishDefault : NoForced : No
Menu00:00:00.000 : en:00:00:00.00000:07:16.680 : en:00:07:16.68000:10:52.120 : en:00:10:52.12000:13:58.440 : en:00:13:58.44000:16:05.600 : en:00:16:05.60000:20:33.520 : en:00:20:33.52000:29:01.440 : en:00:29:01.44000:33:12.080 : en:00:33:12.08000:40:36.160 : en:00:40:36.16000:50:38.520 : en:00:50:38.52001:00:22.960 : en:01:00:22.96001:05:30.040 : en:01:05:30.04001:11:21.600 : en:01:11:21.60001:15:17.360 : en:01:15:17.36001:17:04.080 : en:01:17:04.08001:20:14.240 : en:01:20:14.24001:27:03.320 : en:01:27:03.320

Скриншоты



[Профиль] [ЛС]
Кто просматривает тему:

Показать сообщения:    

Текущее время: Сегодня 20:33

Часовой пояс: GMT



Вы не можете начинать темы
Вы не можете отвечать на сообщения
Вы не можете редактировать свои сообщения
Вы не можете удалять свои сообщения
Вы не можете голосовать в опросах
Вы не можете прикреплять файлы к сообщениям
Вы не можете скачивать файлы