2 спальни, 1 ванная / 2 Bedroom 1 Bath (Стэнли Юнг / Stanley Yung) [2014, США, ужасы, триллер, SATRip] MVO (НТВ+)

 
Автор Сообщение

reversefile ®

Пол:

Стаж: 4 года 5 месяцев

Сообщений: 842

Откуда: ReverseFile.org



Награды: Нет

Торрент-статистика

Создавать темы 11-Авг-2014 10:41

[Цитировать]

2 спальни, 1 ванная / 2 Bedroom 1 Bath
Страна: США
Жанр: ужасы, триллер
Год выпуска: 2014
Продолжительность: 01:26:58
Перевод: Профессиональный (многоголосый закадровый) НТВ+
Cубтитры: нет
Оригинальная аудиодорожка: нет
Режиссер: Стэнли Юнг / Stanley Yung
В ролях: Стэнли Юнг
В ролях: Мишель Хикс, Эндрю В. Уолкер, Эрик Робертс, Ди Уоллес-Стоун, Костас Мэндилор, Шошана Буш, Шелби Янг, Эйден Флауэрс, Джек Доннер, Руби Лу Смит
Описание: Молодая пара, Кевин и Рейчел, переезжают в дом, который им видится идеальным для создания новой семьи. Вскоре выясняется, что Рейчел беременна и, казалось бы, счастью супругам нет предела, но с приятной новостью приходят и загадочные, ужасающие события. Кевину начинают сниться кошмары, которые не перестают его преследовать даже наяву, а Рейчел не дает покоя призрак в красном платье. Чем больше некогда счастливая пара пытается распутать причины происходящего, тем больше они понимают, что все события сосредоточены вокруг рождения их будущего ребенка

Сэмпл: http://multi-up.com/990671
Качество видео: SATRip
Формат видео: AVI
Видео: 720x384 (1.88:1), 25 fps, XviD build 50 ~2048 kbps avg, 0.30 bit/pixel
Аудио: 44.1 kHz, AC3 Dolby Digital, 2/0 (L,R) ch, ~192 kbps

MediaInfo

General
Complete name : C:\Users\Вика\Desktop\2.Bedroom.1.Bath.2014.SATRip.avi
Format : AVI
Format/Info : Audio Video Interleave
File size : 1.37 GiB
Duration : 1h 26mn
Overall bit rate : 2 250 Kbps
Writing application : VirtualDubMod 1.5.10.3 | www.virtualdub-fr.org || (build 2550/release)
Writing library : VirtualDubMod build 2550/release
Video
ID : 0
Format : MPEG-4 Visual
Format profile : Advanced Simple@L5
Format settings, BVOP : Yes
Format settings, QPel : No
Format settings, GMC : No warppoints
Format settings, Matrix : Default (MPEG)
Codec ID : XVID
Codec ID/Hint : XviD
Duration : 1h 26mn
Bit rate : 2 049 Kbps
Width : 720 pixels
Height : 384 pixels
Display aspect ratio : 1.85:1
Frame rate : 25.000 fps
Color space : YUV
Chroma subsampling : 4:2:0
Bit depth : 8 bits
Scan type : Progressive
Compression mode : Lossy
Bits/(Pixel*Frame) : 0.296
Stream size : 1.24 GiB (91%)
Writing library : XviD 1.2.1 (UTC 2008-12-04)
Audio
ID : 1
Format : AC-3
Format/Info : Audio Coding 3
Mode extension : CM (complete main)
Format settings, Endianness : Big
Codec ID : 2000
Duration : 1h 26mn
Bit rate mode : Constant
Bit rate : 192 Kbps
Channel count : 2 channels
Channel positions : Front: L R
Sampling rate : 44.1 KHz
Bit depth : 16 bits
Compression mode : Lossy
Stream size : 119 MiB (9%)
Alignment : Split accross interleaves
Interleave, duration : 40 ms (1.00 video frame)
Interleave, preload duration : 500 ms

Скриншоты

[Профиль] [ЛС]
Кто просматривает тему:

Показать сообщения:    

Текущее время: Сегодня 18:28

Часовой пояс: GMT



Вы не можете начинать темы
Вы не можете отвечать на сообщения
Вы не можете редактировать свои сообщения
Вы не можете удалять свои сообщения
Вы не можете голосовать в опросах
Вы не можете прикреплять файлы к сообщениям
Вы не можете скачивать файлы