(Hard Rock) [CD] Deep Purple - Made in Japan (The Remastered Edition) 2CD - 1972 (rem. 1998), FLAC (image+.cue), lossless

 
Автор Сообщение

sergej644 ®

Пол:

Стаж: 4 года 11 месяцев

Сообщений: 6046

Откуда: Soviet Union



Награды: Нет

Торрент-статистика

Создавать темы 14-Ноя-2014 21:33

[Цитировать]

-Deep Purple / Made in Japan (The Remastered Edition) 2CD
Жанр: Hard Rock
Носитель: CD
Страна-производитель диска: USA
Год издания: 1972 (rem. 1998)
Издатель (лейбл): Warner Archives/Rhino
Номер по каталогу: R2 75623
Страна исполнителя (группы): GB
Аудиокодек: FLAC (*.flac)
Тип рипа: image+.cue
Битрейт аудио: lossless
Продолжительность: (01:16:19) + (00:21:45)
Источник (релизер): Alex Fal
Наличие сканов в содержимом раздачи: да
Треклист:
CD 1 – Made in Japan
[01] Highway Star [06:43]
[02] Child In Time [12:17]
[03] Smoke On The Water [07:36]
[04] The Mule (drum solo) [09:28]
[05] Strange Kind Of Woman [09:52]
[06] Lazy [10:27]
[07] Space Truckin' [19:54]
CD 2 – The Encores
[01] Black Night [06:17]
[02] Speed King [07:24]
[03] Lucille [08:03]

Лог CD 1

Exact Audio Copy V1.0 beta 3 from 29. August 2011
EAC extraction logfile from 5. October 2014, 19:11
Deep Purple / Made in Japan [RM 1998 CD 1]
Used drive : ASUS SDRW-08D1S-U Adapter: 1 ID: 0
Read mode : Secure
Utilize accurate stream : Yes
Defeat audio cache : Yes
Make use of C2 pointers : No
Read offset correction : 667
Overread into Lead-In and Lead-Out : No
Fill up missing offset samples with silence : Yes
Delete leading and trailing silent blocks : No
Null samples used in CRC calculations : Yes
Used interface : Native Win32 interface for Win NT & 2000
Used output format : User Defined Encoder
Selected bitrate : 128 kBit/s
Quality : High
Add ID3 tag : No
Command line compressor : C:\Program Files (x86)\Exact Audio Copy\Flac\flac.exe
Additional command line options : -V -8 -T "Date=%year%" -T "Genre=%genre%" %source%
TOC of the extracted CD
Track | Start | Length | Start sector | End sector
---------------------------------------------------------
1 | 0:00.32 | 6:43.00 | 32 | 30256
2 | 6:43.32 | 12:17.53 | 30257 | 85584
3 | 19:01.10 | 7:36.47 | 85585 | 119831
4 | 26:37.57 | 9:28.30 | 119832 | 162461
5 | 36:06.12 | 9:52.25 | 162462 | 206886
6 | 45:58.37 | 10:27.20 | 206887 | 253931
7 | 56:25.57 | 19:54.28 | 253932 | 343509
Range status and errors
Selected range
Filename C:\Users\Олег\Desktop\Made in Japan\Deep Purple - Made in Japan [RM 1998 CD 1].wav
Peak level 98.6 %
Extraction speed 4.1 X
Range quality 100.0 %
Test CRC 83BF2A84
Copy CRC 83BF2A84
Copy OK
No errors occurred
AccurateRip summary
Track 1 accurately ripped (confidence 8) [E92E60CC] (AR v2)
Track 2 accurately ripped (confidence 8) [6B63FFCB] (AR v2)
Track 3 accurately ripped (confidence 8) [1FA6C794] (AR v2)
Track 4 accurately ripped (confidence 8) [62600846] (AR v2)
Track 5 accurately ripped (confidence 8) [72B66A6F] (AR v2)
Track 6 accurately ripped (confidence 8) [F1D66844] (AR v2)
Track 7 accurately ripped (confidence 8) [765FE441] (AR v2)
All tracks accurately ripped
End of status report
==== Log checksum 4D2D4AB6CF16A82DFEF6EE82607FCA72BA193B99D2E323DC30455C1D2440086A ====

Лог CD 2

Exact Audio Copy V1.0 beta 3 from 29. August 2011
EAC extraction logfile from 5. October 2014, 19:52
Deep Purple / Made in Japan [RM 1998 CD 2]
Used drive : ASUS SDRW-08D1S-U Adapter: 1 ID: 0
Read mode : Secure
Utilize accurate stream : Yes
Defeat audio cache : Yes
Make use of C2 pointers : No
Read offset correction : 667
Overread into Lead-In and Lead-Out : No
Fill up missing offset samples with silence : Yes
Delete leading and trailing silent blocks : No
Null samples used in CRC calculations : Yes
Used interface : Native Win32 interface for Win NT & 2000
Used output format : User Defined Encoder
Selected bitrate : 128 kBit/s
Quality : High
Add ID3 tag : No
Command line compressor : C:\Program Files (x86)\Exact Audio Copy\Flac\flac.exe
Additional command line options : -V -8 -T "Date=%year%" -T "Genre=%genre%" %source%
TOC of the extracted CD
Track | Start | Length | Start sector | End sector
---------------------------------------------------------
1 | 0:00.32 | 6:17.48 | 32 | 28354
2 | 6:18.05 | 7:24.57 | 28355 | 61711
3 | 13:42.62 | 8:03.20 | 61712 | 97956
Range status and errors
Selected range
Filename C:\Users\Олег\Desktop\Made in Japan\CD 2\Deep Purple - Made in Japan [RM 1998 CD 2].wav
Peak level 93.6 %
Extraction speed 3.2 X
Range quality 99.9 %
Test CRC 8EBE5E45
Copy CRC 8EBE5E45
Copy OK
No errors occurred
AccurateRip summary
Track 1 accurately ripped (confidence 11) [2EE15C78] (AR v2)
Track 2 accurately ripped (confidence 11) [B1965F96] (AR v2)
Track 3 accurately ripped (confidence 11) [C9213A41] (AR v2)
All tracks accurately ripped
End of status report
==== Log checksum A1343AD3CC73882C85A01F2ECD8EA0026DA136D677881F7FDE94C7D8E52A8C3F ====

Содержание индексной карты CD 1(.CUE)

REM GENRE "Hard Rock"
REM DATE 1972
REM DISCID 6111E407
REM COMMENT "ExactAudioCopy v1.0b3"
PERFORMER "Deep Purple"
TITLE "Made in Japan [RM 1998 CD 1]"
FILE "Deep Purple - Made in Japan [RM 1998 CD 1].flac" WAVE
TRACK 01 AUDIO
TITLE "Highway Star"
PERFORMER "Deep Purple"
INDEX 00 00:00:00
INDEX 01 00:00:32
TRACK 02 AUDIO
TITLE "Child in Time"
PERFORMER "Deep Purple"
INDEX 01 06:43:32
TRACK 03 AUDIO
TITLE "Smoke on the Water"
PERFORMER "Deep Purple"
INDEX 01 19:01:10
TRACK 04 AUDIO
TITLE "The Mule"
PERFORMER "Deep Purple"
INDEX 01 26:37:57
TRACK 05 AUDIO
TITLE "Strange Kind of Woman"
PERFORMER "Deep Purple"
INDEX 01 36:06:12
TRACK 06 AUDIO
TITLE "Lazy"
PERFORMER "Deep Purple"
INDEX 01 45:58:37
TRACK 07 AUDIO
TITLE "Space Truckin'"
PERFORMER "Deep Purple"
INDEX 01 56:25:57

Содержание индексной карты CD 2(.CUE)

REM GENRE "Hard Rock"
REM DATE 1972
REM DISCID 1B051A03
REM COMMENT "ExactAudioCopy v1.0b3"
PERFORMER "Deep Purple"
TITLE "Made in Japan [RM 1998 CD 2]"
FILE "Deep Purple - Made in Japan [RM 1998 CD 2].flac" WAVE
TRACK 01 AUDIO
TITLE "Black Night"
PERFORMER "Deep Purple"
INDEX 00 00:00:00
INDEX 01 00:00:32
TRACK 02 AUDIO
TITLE "Speed King"
PERFORMER "Deep Purple"
INDEX 01 06:18:05
TRACK 03 AUDIO
TITLE "Lucille"
PERFORMER "Deep Purple"
INDEX 01 13:42:62
[Профиль] [ЛС]
Показать сообщения:    

Текущее время: Сегодня 18:49

Часовой пояс: GMT



Вы не можете начинать темы
Вы не можете отвечать на сообщения
Вы не можете редактировать свои сообщения
Вы не можете удалять свои сообщения
Вы не можете голосовать в опросах
Вы не можете прикреплять файлы к сообщениям
Вы не можете скачивать файлы