(Classic Rock) [CD] The Beatles - Baby It's You (maxi CD single) - 1995, FLAC (image+.cue), lossless

 
Автор Сообщение

sergej644 ®

Пол:

Стаж: 4 года 11 месяцев

Сообщений: 6042

Откуда: Soviet Union



Награды: Нет

Торрент-статистика

Создавать темы 26-Авг-2014 07:49

[Цитировать]

The Beatles / Baby It's You (maxi CD single)
Жанр: Classic Rock
Носитель: CD
Страна-производитель диска: Holland
Год издания: 1995
Издатель (лейбл): EMI
Номер по каталогу: 7243 8 82073 2 4
Страна: GB
Аудиокодек: FLAC (*.flac)
Тип рипа: image+.cue
Битрейт аудио: lossless
Продолжительность: 00:09:29
Источник (релизер): Alex Fal
Наличие сканов в содержимом раздачи: да

[01] Baby It's You [02:45]
[02] I’ll Follow the Sun [01:51]
[03] Devil In Her Heart [02:23]
[04] Boys [02:29]

Лог создания рипа

Exact Audio Copy V1.0 beta 3 from 29. August 2011
EAC extraction logfile from 25. August 2014, 16:35
The Beatles / Baby It's You
Used drive  : ASUS    SDRW-08D1S-U   Adapter: 1  ID: 0
Read mode               : Secure
Utilize accurate stream : Yes
Defeat audio cache      : Yes
Make use of C2 pointers : No
Read offset correction                      : 667
Overread into Lead-In and Lead-Out          : No
Fill up missing offset samples with silence : Yes
Delete leading and trailing silent blocks   : No
Null samples used in CRC calculations       : Yes
Used interface                              : Native Win32 interface for Win NT & 2000
Used output format              : User Defined Encoder
Selected bitrate                : 128 kBit/s
Quality                         : High
Add ID3 tag                     : No
Command line compressor         : C:\Program Files (x86)\Exact Audio Copy\Flac\flac.exe
Additional command line options : -V -8 -T "Date=%year%" -T "Genre=%genre%" %source%
TOC of the extracted CD
     Track |   Start  |  Length  | Start sector | End sector
    ---------------------------------------------------------
        1  |  0:00.33 |  2:45.20 |        33    |    12427
        2  |  2:45.53 |  1:51.47 |     12428    |    20799
        3  |  4:37.25 |  2:23.53 |     20800    |    31577
        4  |  7:01.03 |  2:29.07 |     31578    |    42759
Range status and errors
Selected range
     Filename C:\Users\Олег\Desktop\The Beatles\The Beatles - Baby It's You.wav
     Peak level 99.3 %
     Extraction speed 2.8 X
     Range quality 100.0 %
     Test CRC B7898253
     Copy CRC B7898253
     Copy OK
No errors occurred
AccurateRip summary
Track  1  accurately ripped (confidence 7)  [FDE1F955]  (AR v2)
Track  2  accurately ripped (confidence 7)  [2E93436D]  (AR v2)
Track  3  accurately ripped (confidence 7)  [FF0FFDBE]  (AR v2)
Track  4  accurately ripped (confidence 7)  [01A5D236]  (AR v2)
All tracks accurately ripped
End of status report
==== Log checksum 5639DA0655082A7E0870F674698A08A86494E118DF84DC09997A0B880B01BB8C ====

Содержание индексной карты (.CUE)

REM GENRE Rock
REM DATE 1995
REM DISCID 2B023A04
REM COMMENT "ExactAudioCopy v1.0b3"
PERFORMER "The Beatles"
TITLE "Baby It's You"
FILE "The Beatles - Baby It's You.flac" WAVE
  TRACK 01 AUDIO
    TITLE "Baby It's You"
    PERFORMER "The Beatles"
    INDEX 00 00:00:00
    INDEX 01 00:00:33
  TRACK 02 AUDIO
    TITLE "I'll Follow The Sun"
    PERFORMER "The Beatles"
    INDEX 00 02:44:60
    INDEX 01 02:45:53
  TRACK 03 AUDIO
    TITLE "Devil In Her Heart"
    PERFORMER "The Beatles"
    INDEX 00 04:36:20
    INDEX 01 04:37:25
  TRACK 04 AUDIO
    TITLE "Boys"
    PERFORMER "The Beatles"
    INDEX 00 07:00:18
    INDEX 01 07:01:03
--
[Профиль] [ЛС]
Показать сообщения:    

Текущее время: Сегодня 08:58

Часовой пояс: GMT



Вы не можете начинать темы
Вы не можете отвечать на сообщения
Вы не можете редактировать свои сообщения
Вы не можете удалять свои сообщения
Вы не можете голосовать в опросах
Вы не можете прикреплять файлы к сообщениям
Вы не можете скачивать файлы