(Euro-Disco) [CD] Modern Talking - In The Middle Of Nowhere (The 4th Album) [Black Label] - 1986, FLAC (image+.cue), lossless

 
Автор Сообщение

sergej644 ®

Пол:

Стаж: 4 года 11 месяцев

Сообщений: 6040

Откуда: Soviet Union



Награды: Нет

Торрент-статистика

Создавать темы 01-Окт-2014 15:49

[Цитировать]

--Modern Talking - In The Middle Of Nowhere (The 4th Album)
Жанр: Euro-Disco
Носитель: CD
Страна-производитель диска: W. Germany
Год издания: 11/1986
Издатель (лейбл): Hansa/Ariola-Eurodisc GmbH.
Номер по каталогу: 258 039-222
Страна исполнителя (группы): Germany
Аудиокодек: FLAC (*.flac)
Тип рипа: image+.cue
Битрейт аудио: lossless
Продолжительность: 37:40
Источник (релизер): private CD (discofan74)
Наличие сканов в содержимом раздачи: да
Треклист:
01. Geronimo's Cadillac 3:19
02. Riding On A White Swan 3:54
03. Give Me Peace On Earth 4:14
04. Sweet Little Sheila 3:04
05. Ten Thousand Lonely Drums 3:32
06. Lonely Tears In Chinatown 3:31
07. In Shaire 3:45
08. Stranded In The Middle Of Nowhere 4:32
09. The Angels Sing In New York City 3:34
10. Princess Of The Night 3:55
Produced & Arranged by Dieter Bohlen
Co-producer: Luis Rodriguez

Лог создания рипа

Exact Audio Copy V1.0 beta 3 from 29. August 2011
Отчёт EAC об извлечении, выполненном 1. октября 2014, 13:56
Modern Talking / In The Middle Of Nowhere
Дисковод: Optiarc DVD RW AD-7200S   Adapter: 2  ID: 0
Режим чтения                 : Достоверность
Использование точного потока : Да
Отключение кэша аудио        : Да
Использование указателей C2  : Нет
Коррекция смещения при чтении                     : 48
Способность читать области Lead-in и Lead-out     : Нет
Заполнение пропущенных сэмплов тишиной            : Да
Удаление блоков с тишиной в начале и конце        : Нет
При вычислениях CRC использовались нулевые сэмплы : Да
Интерфейс                                         : Встроенный Win32-интерфейс для Win NT/2000
Выходной формат          : Пользовательский кодировщик
Выбранный битрейт        : 768 kBit/s
Качество                 : Высокий
Добавление ID3-тега      : Нет
Утилита сжатия           : C:\Program Files\Exact Audio Copy\FLAC\FLAC.EXE
Дополнительные параметры : -6 -V -T "ARTIST=%artist%" -T "TITLE=%title%" -T "ALBUM=%albumtitle%" -T "DATE=%year%" -T "TRACKNUMBER=%tracknr%" -T "GENRE=%genre%" -T "COMMENT=%comment%" -T "BAND=%albuminterpret%" -T "ALBUMARTIST=%albuminterpret%" -T "COMPOSER=%composer%" %haslyrics%--tag-from-file=LYRICS="%lyricsfile%"%haslyrics% -T "DISCNUMBER=%cdnumber%" -T "TOTALDISCS=%totalcds%" -T "TOTALTRACKS=%numtracks%" %hascover%--picture="%coverfile%"%hascover% %source% -o %dest%
TOC извлечённого CD
     Трек |   Старт  | Длительность | Начальный сектор | Конечный сектор
    ---------------------------------------------------------------------
       1  |  0:00.33 |    3:21.37   |          33      |      15144
       2  |  3:21.70 |    3:56.25   |       15145      |      32869
       3  |  7:18.20 |    4:15.38   |       32870      |      52032
       4  | 11:33.58 |    3:06.12   |       52033      |      65994
       5  | 14:39.70 |    3:33.38   |       65995      |      82007
       6  | 18:13.33 |    3:33.00   |       82008      |      97982
       7  | 21:46.33 |    3:46.50   |       97983      |     114982
       8  | 25:33.08 |    4:34.00   |      114983      |     135532
       9  | 30:07.08 |    3:36.25   |      135533      |     151757
      10  | 33:43.33 |    3:57.00   |      151758      |     169532
Характеристики диапазона извлечения и сообщения об ошибках
Выбранный диапазон
     Имя файла D:\Мои раздачи\Modern Talking - In The Middle Of Nowhere [Black Label] (1986)\Modern Talking - In The Middle Of Nowhere.wav
     Пиковый уровень 91.3 %
     Скорость извлечения 3.5 X
     Качество диапазона 100.0 %
     CRC теста A2C3854B
     CRC копии A2C3854B
     Копирование... OK
Ошибок не произошло
AccurateRip: сводка
Трек  1  : извлечено точно (доверие 10)  [094CCE16]  (AR v2)
Трек  2  : извлечено точно (доверие 10)  [00D475F6]  (AR v2)
Трек  3  : извлечено точно (доверие 10)  [61D5FA3B]  (AR v2)
Трек  4  : извлечено точно (доверие 10)  [1D1CE29F]  (AR v2)
Трек  5  : извлечено точно (доверие 10)  [73566E64]  (AR v2)
Трек  6  : извлечено точно (доверие 10)  [7F37DE5D]  (AR v2)
Трек  7  : извлечено точно (доверие 10)  [B84CD11B]  (AR v2)
Трек  8  : извлечено точно (доверие 10)  [9273EBF7]  (AR v2)
Трек  9  : извлечено точно (доверие 10)  [412966CA]  (AR v2)
Трек 10  : извлечено точно (доверие 10)  [22138C04]  (AR v2)
Все треки извлечены точно
Конец отчёта
==== Контрольная сумма отчёта 05A0A586E859799C73050E7398C517716694BDE0E46D836EA129CB71B819F902 ====

Содержание индексной карты (.CUE)

REM GENRE Euro-Disco
REM DATE 1986
REM DISCID 7808D40A
REM COMMENT "ExactAudioCopy v1.0b3"
PERFORMER "Modern Talking"
TITLE "In The Middle Of Nowhere"
FILE "Modern Talking - In The Middle Of Nowhere.flac" WAVE
  TRACK 01 AUDIO
    TITLE "Geronimo's Cadillac"
    PERFORMER "Modern Talking"
    INDEX 00 00:00:00
    INDEX 01 00:00:33
  TRACK 02 AUDIO
    TITLE "Riding On A White Swan"
    PERFORMER "Modern Talking"
    INDEX 00 03:18:70
    INDEX 01 03:21:70
  TRACK 03 AUDIO
    TITLE "Give Me Peace On Earth"
    PERFORMER "Modern Talking"
    INDEX 00 07:16:20
    INDEX 01 07:18:20
  TRACK 04 AUDIO
    TITLE "Sweet Little Sheila"
    PERFORMER "Modern Talking"
    INDEX 00 11:31:58
    INDEX 01 11:33:58
  TRACK 05 AUDIO
    TITLE "Ten Thousand Lonely Drums"
    PERFORMER "Modern Talking"
    INDEX 00 14:37:70
    INDEX 01 14:39:70
  TRACK 06 AUDIO
    TITLE "Lonely Tears In Chinatown"
    PERFORMER "Modern Talking"
    INDEX 00 18:11:33
    INDEX 01 18:13:33
  TRACK 07 AUDIO
    TITLE "In Shaire"
    PERFORMER "Modern Talking"
    INDEX 00 21:44:33
    INDEX 01 21:46:33
  TRACK 08 AUDIO
    TITLE "Stranded In The Middle Of Nowhere"
    PERFORMER "Modern Talking"
    INDEX 00 25:31:08
    INDEX 01 25:33:08
  TRACK 09 AUDIO
    TITLE "The Angels Sing In New York City"
    PERFORMER "Modern Talking"
    INDEX 00 30:05:08
    INDEX 01 30:07:08
  TRACK 10 AUDIO
    TITLE "Princess Of The Night"
    PERFORMER "Modern Talking"
    INDEX 00 33:41:33
    INDEX 01 33:43:33

Скриншот спектра частот

Доп. информация

Only for Fans of Modern Talking. Оригинальное раннее издание 4-го альбома на чёрном лэйбле. Matrix: Sonopress 258 039 B. 30-летию дуэта посвящается. Рип снят в режиме Test & Copy.
--
[Профиль] [ЛС]

Создавать темы 13-Авг-2015 10:57 (спустя 10 месяцев 11 дней)

Топик был перенесен из форума Зарубежная в форум Technopop, Eurodance, Disco
sergej644
 
Показать сообщения:    

Текущее время: Сегодня 22:43

Часовой пояс: GMT



Вы не можете начинать темы
Вы не можете отвечать на сообщения
Вы не можете редактировать свои сообщения
Вы не можете удалять свои сообщения
Вы не можете голосовать в опросах
Вы не можете прикреплять файлы к сообщениям
Вы не можете скачивать файлы