1944 / 1944 (Элмо Нюганен / Elmo Nüganen) [2015, Эстония, Финляндия, драма, военный, BDRip-AVC] VO + Original (Est) + Sub (Rus, Eng)

 
Автор Сообщение

TorrentFilm ®

Пол:

Стаж: 2 года

Сообщений: 7741



Награды: Нет

Торрент-статистика

Создавать темы 13-Ноя-2015 00:12

[Цитировать]

1944
1944

Страна: Эстония, Финляндия
Жанр: драма, военный
Год выпуска: 2015
Продолжительность: 01:35:54
Перевод: Студийный (одноголосый, закадровый) [Лицензия BD BALTiC]
Субтитры: русские, английские
Оригинальная аудиодорожка: Эстонский
Режиссер: Элмо Нюганен / Elmo Nüganen
В ролях: Marko Leht, Майкен Шмидт, Майт Мальмстен, Märt Pius, Magnús Mariuson, Kristjan Üksküla, Герд Раудсеп, Тони Ойя, Анне Рееманн, Кристиан Сарв, Яак Принц, Каспар Велберг
Описание:
В фильме рассматриваются военные события, происходившие в Эстонии в 1944 году, в период от июльских боёв в Синимяэ до ноября, когда полуостров Сырве был уже завоёван войсками Советской Армии. Война показана глазами участников событий с обеих враждующих сторон - эстонцев, которые воевали и на стороне немецкой армии в 20-й эстонской дивизии Waffen-SS, и в составе 8-го Эстонского стрелкового корпуса Советской Армии. Для жителей Эстонии это была война, в которой каждый делал свой личный выбор. Именно с таким нелёгким выбором сталкиваются главные герои картины - солдаты противоборствующих сторон Карл Таммик и Юри Йыги - а также их сослуживцы, родные, близких и совсем незнакомые люди... Релиз:
Автор рипа: Stalker oK
Сэмпл
Качество видео: BDRip-AVC [Blu-ray 1080i HDCLUB]
Формат видео: MKV
Видео кодек: AVC
Аудио кодек: AC3
Видео: 2425 Кбит/сек, 1132*474 (2,35:1), в 25,000 кадр/сек, AVC
Аудио №1: Russian, 384 Кбит/сек, 48,0 КГц, 16 бит, 6 канала(ов), AC-3
Аудио №2: Estonian, 448 Кбит/сек, 48,0 КГц, 16 бит, 6 канала(ов), AC-3
Навигация по главам: есть

MediaInfo

Общее
Уникальный идентификатор : 176588746300526731361296102921203623183 (0x84D9C16422B8E6BE88F7E99AA830250F)
Полное имя : M:\Rips\1944\1944.2015.BDRip-AVC.VO.2.18Gb...stalkerok.new-team.mkv
Формат : Matroska
Размер файла : 2,18 Гбайт
Продолжительность : 1 ч. 35 м.
Общий поток : 3253 Кбит/сек
Название фильма : 1944 (2015) (New-Team) (Rip by Stalker oK)
Дата кодирования : UTC 2015-11-09 20:12:52
Программа кодирования : mkvmerge v7.9.0 ('Birds') 64bit
Библиотека кодирования : libebml v1.3.1 + libmatroska v1.4.2
Видео
Идентификатор : 1
Формат : AVC
Формат/Информация : Advanced Video Codec
Профиль формата : High@L4.1
Параметр CABAC формата : Да
Параметр ReFrames формата : 12 кадры
Идентификатор кодека : V_MPEG4/ISO/AVC
Продолжительность : 1 ч. 35 м.
Битрейт : 2425 Кбит/сек
Ширина : 1132 пикс.
Высота : 474 пикс.
Соотношение сторон : 2,35:1
Частота кадров : 25,000 кадр/сек
Цветовое пространство : YUV
Подвыборка цветности : 4:2:0
Битовая глубина : 8 бит
Тип развёртки : Прогрессивная
Бит/(Пиксели*Кадры) : 0.181
Размер потока : 1,58 Гбайт (72%)
Заголовок : 1944 (2015) (New-Team) (Rip by Stalker oK)
Библиотека кодирования : x264 core 146 r2538kMod 121396c
Настройки программы : cabac=1 / ref=12 / deblock=1:-3:-3 / analyse=0x3:0x133 / me=umh / subme=11 / psy=1 / fade_compensate=0.00 / psy_rd=1.00:0.10 / mixed_ref=1 / me_range=48 / chroma_me=1 / trellis=2 / 8x8dct=1 / cqm=0 / deadzone=21,11 / fast_pskip=0 / chroma_qp_offset=-3 / threads=12 / lookahead_threads=3 / sliced_threads=0 / nr=0 / decimate=0 / interlaced=0 / bluray_compat=0 / constrained_intra=0 / fgo=0 / bframes=14 / b_pyramid=2 / b_adapt=2 / b_bias=0 / direct=3 / weightb=1 / open_gop=0 / weightp=2 / keyint=250 / keyint_min=25 / scenecut=40 / intra_refresh=0 / rc_lookahead=60 / rc=2pass / mbtree=0 / bitrate=2425 / ratetol=1.0 / qcomp=0.70 / qpmin=0 / qpmax=69 / qpstep=4 / cplxblur=20.0 / qblur=0.5 / vbv_maxrate=50000 / vbv_bufsize=62500 / nal_hrd=none / filler=0 / ip_ratio=1.40 / pb_ratio=1.30 / aq=3:0.80
Аудио #1
Идентификатор : 2
Формат : AC-3
Формат/Информация : Audio Coding 3
Расширение режима : CM (complete main)
Идентификатор кодека : A_AC3
Продолжительность : 1 ч. 35 м.
Вид битрейта : Постоянный
Битрейт : 384 Кбит/сек
Канал(ы) : 6 канала(ов)
Расположение каналов : Front: L C R, Side: L R, LFE
Частота : 48,0 КГц
Битовая глубина : 16 бит
Метод сжатия : С потерями
Задержка видео : 80 мс.
Размер потока : 263 Мбайт (12%)
Язык : Russian
Аудио #2
Идентификатор : 3
Формат : AC-3
Формат/Информация : Audio Coding 3
Расширение режима : CM (complete main)
Идентификатор кодека : A_AC3
Продолжительность : 1 ч. 35 м.
Вид битрейта : Постоянный
Битрейт : 448 Кбит/сек
Канал(ы) : 6 канала(ов)
Расположение каналов : Front: L C R, Side: L R, LFE
Частота : 48,0 КГц
Битовая глубина : 16 бит
Метод сжатия : С потерями
Задержка видео : 80 мс.
Размер потока : 307 Мбайт (14%)
Язык : Estonian
Текст #1
Идентификатор : 4
Формат : UTF-8
Идентификатор кодека : S_TEXT/UTF8
Идентификатор кодека/Информация : UTF-8 Plain Text
Язык : Russian
Текст #2
Идентификатор : 5
Формат : UTF-8
Идентификатор кодека : S_TEXT/UTF8
Идентификатор кодека/Информация : UTF-8 Plain Text
Язык : English
Меню
00:00:00.000 : en:Chapter 1
00:09:34.640 : en:Chapter 2
00:19:05.200 : en:Chapter 3
00:30:19.680 : en:Chapter 4
00:41:33.320 : en:Chapter 5
00:49:15.600 : en:Chapter 6
00:59:41.640 : en:Chapter 7
01:10:25.040 : en:Chapter 8
01:21:08.600 : en:Chapter 9
01:30:46.720 : en:Chapter 10
01:33:17.120 : en:Chapter 11

Скриншоты

[Профиль] [ЛС]
Показать сообщения:    

Текущее время: Сегодня 12:22

Часовой пояс: GMT



Вы не можете начинать темы
Вы не можете отвечать на сообщения
Вы не можете редактировать свои сообщения
Вы не можете удалять свои сообщения
Вы не можете голосовать в опросах
Вы не можете прикреплять файлы к сообщениям
Вы не можете скачивать файлы