1944 (Элмо Нюганен / Elmo Nüganen) [2015, Эстония, Финляндия, драма, военный, HDRip] VO

 
Автор Сообщение

TorrentFilm ®

Пол:

Стаж: 2 года

Сообщений: 7741



Награды: Нет

Торрент-статистика

Создавать темы 09-Ноя-2015 00:07

[Цитировать]

1944Страна: Эстония, Финляндия
Год выпуска: 2015
Жанр: драма, военный
Продолжительность: 01:39:54
Перевод: Одноголосый закадровый datynet, по переводу Shoegaze (рекламы и ссылок нет)-Режиссер: Элмо Нюганен / Elmo Nüganen-В ролях: Кристиан Юкскюла, Каспар Велберг, Майкен Шмидт, Хендрик Калмет, Карл-Андреас Калмет, Прийт Пиус, Мярт Пиус, Хендрик Тоомпере-мл.,
Гердт Раудсеп, Майт Малмстен, Пеэтер Таммеару, Айн Мяэотс, Райн Симмул, Кристьян Сарв, Иво Ууккиви, Андеро Эрмел, Анне Реэманн, Тыну Оя
--В новом историческом фильме Элмо Нюганена “1944” рассматриваются военные события, происходившие в Эстонии в 1944 году, в период от июльских боёв в Синимяэ до ноября, когда полуостров Сырве был уже завоёван войсками Советской Армии. Война показана глазами участников событий с обеих враждующих сторон – эстонцев, которые воевали и на стороне немецкой армии в 20-й эстонской дивизии Waffen-SS, и в составе 8-го Эстонского стрелкового корпуса Советской Армии. Для жителей Эстонии это была война, в которой каждый делал свой личный выбор. Именно с таким нелёгким выбором сталкиваются главные герои картины - солдаты противоборствующих сторон Карл Таммик и Юри Йыги - а также их сослуживцы, родные, близких и совсем незнакомые люди...-
-
Сэмпл: http://sendfile.su/1168298
Качество видео: HDRip
Исходник: BDRip 720p
Формат видео: AVI
Видео: XviD (1.2.2) 900kbps 688x288 24.000fps
Аудио: MP3 128kbps 2ch 16bit 48000khz

MediaInfo

MediaInfoLib - v0.7.62
General
Complete name : E:\Контарик\Downloads\Мои раздачи\1944. 2015г. HDRip. - kontarik81.avi
Format : AVI
Format/Info : Audio Video Interleave
File size : 741 MiB
Duration : 1h 39mn
Overall bit rate : 1 037 Kbps
Writing application : VirtualDubMod 1.5.10.3 | www.virtualdub-fr.org || (build 2550/release)
Writing library : VirtualDubMod build 2550/release
Video
ID : 0
Format : MPEG-4 Visual
Format profile : Advanced Simple@L5
Format settings, BVOP : 1
Format settings, QPel : No
Format settings, GMC : No warppoints
Format settings, Matrix : Default (H.263)
Codec ID : XVID
Codec ID/Hint : XviD
Duration : 1h 39mn
Bit rate : 900 Kbps
Width : 688 pixels
Height : 288 pixels
Display aspect ratio : 2.40:1
Frame rate : 24.000 fps
Color space : YUV
Chroma subsampling : 4:2:0
Bit depth : 8 bits
Scan type : Progressive
Compression mode : Lossy
Bits/(Pixel*Frame) : 0.189
Stream size : 643 MiB (87%)
Writing library : XviD 1.2.1 (UTC 2008-12-04)
Audio
ID : 1
Format : MPEG Audio
Format version : Version 1
Format profile : Layer 3
Mode : Joint stereo
Mode extension : MS Stereo
Codec ID : 55
Codec ID/Hint : MP3
Duration : 1h 39mn
Bit rate mode : Constant
Bit rate : 128 Kbps
Channel(s) : 2 channels
Sampling rate : 48.0 KHz
Compression mode : Lossy
Stream size : 91.5 MiB (12%)
Alignment : Aligned on interleaves
Interleave, duration : 42 ms (1.00 video frame)
Interleave, preload duration : 504 ms
Writing library : LAME3.99r
Encoding settings : -m j -V 4 -q 2 -lowpass 17 -b 128

Скриншот c названием фильма

Скриншоты

[Профиль] [ЛС]
Показать сообщения:    

Текущее время: Сегодня 11:55

Часовой пояс: GMT



Вы не можете начинать темы
Вы не можете отвечать на сообщения
Вы не можете редактировать свои сообщения
Вы не можете удалять свои сообщения
Вы не можете голосовать в опросах
Вы не можете прикреплять файлы к сообщениям
Вы не можете скачивать файлы