1915 / 1915 (Карин Ованнисян, Алек Мухибян) [2015 г., драма, WERip]

 
Автор Сообщение

AleksSin ®

Пол:

Стаж: 6 лет

Сообщений: 218



Награды: 4 (Подробнее)

Mega Seeder 1 (Количество: 1) Mega Seeder 3 (Количество: 1) Mega Seeder 2 (Количество: 1)
Торрент-статистика

Создавать темы 26-Апр-2015 06:55

[Цитировать]

1915 / 1915«Нельзя избавиться от прошлого» Год выпуска: 2015
Страна: США / Bloodvine Media, Santisound, Strongman
Жанр: драма
Продолжительность: 01:22:58
Перевод: Любительский (двухголосый) [Студия Пиратского Дубляжа]
Субтитры: нет
Режиссер: Карин Ованнисян, Алек Мухибян
В ролях: Симон Абкарян, Анджела Сарафян, Сэмюэл Пейдж, Николай Кински, Джим Пиддок, Дебра Кристофферсон, Кристофер Клауси, Майлс Крэнфорд, Марк Форгет, Роберт Холлак
Описание: 2015 год. Режиссер старейшего театра Лос-Анджелеса ставит пьесу памяти жертв геноцида армянского народа — преступления, которое не было признано исполнителями и через столетие. Но постановка вызывает в обществе новые приступы ненависти и ксенофобии, а серия необъяснимых происшествий в театре повергает труппу в мистический ужас. Никто не знал, что магия спектакля — в тайне, которую скрывает жена режиссера, загадочная и прекрасная актриса Анжела…

Качество: WEBRip (Исх. WEBRip 720p)
Формат: AVI
Видео кодек: XviD
Аудио кодек: МР3
Видео: 720x384 (1.88:1), 23.976 fps, XviD build 73 ~1118 kbps avg, 0.17 bit/pixel
Аудио: 48 kHz, MPEG Layer 3, 2 ch, ~128.00 kbps avg

MediaInfo

Общее
Полное имя : S:\Фильмы\1915. 2015. WEBRip (AleksSin).avi
Формат : AVI
Формат/Информация : Audio Video Interleave
Размер файла : 745 Мбайт
Продолжительность : 1 ч. 22 м.
Общий поток : 1255 Кбит/сек
Программа кодирования : VirtualDubMod 1.5.10.3 | www.virtualdub-fr.org || (build 2550/release)
Библиотека кодирования : VirtualDubMod build 2550/release
Видео
Идентификатор : 0
Формат : MPEG-4 Visual
Профиль формата : Advanced Simple@L5
Параметр BVOP формата : 1
Параметр QPel формата : Нет
Параметр GMC формата : Без точки перехода
Параметр матрицы формата : Выборочная
Идентификатор кодека : XVID
Идентификатор кодека/Подсказка : XviD
Продолжительность : 1 ч. 22 м.
Битрейт : 1118 Кбит/сек
Ширина : 720 пикс.
Высота : 384 пикс.
Соотношение сторон : 1,875
Частота кадров : 23,976 кадр/сек
Цветовое пространство : YUV
Подвыборка цветности : 4:2:0
Битовая глубина : 8 бит
Тип развёртки : Прогрессивная
Метод сжатия : С потерями
Бит/(Пиксели*Кадры) : 0.169
Размер потока : 663 Мбайт (89%)
Библиотека кодирования : XviD 73
Аудио
Идентификатор : 1
Формат : MPEG Audio
Версия формата : Version 1
Профиль формата : Layer 3
Идентификатор кодека : 55
Идентификатор кодека/Подсказка : MP3
Продолжительность : 1 ч. 22 м.
Вид битрейта : Постоянный
Битрейт : 128 Кбит/сек
Каналы : 2 канала
Частота : 48,0 КГц
Метод сжатия : С потерями
Размер потока : 76,0 Мбайт (10%)
Выравнивание : Соединение по промежуткам
Продолжительность промежутка : 42 мс. (1,00 видеокадр)
Время предзагрузки промежутка : 504 ms
Библиотека кодирования : LAME3.99r
Настройки программы : -m s -V 4 -q 2 -lowpass 17 -b 128

Скриншоты

[Профиль] [ЛС]
Показать сообщения:    

Текущее время: Сегодня 17:41

Часовой пояс: GMT



Вы не можете начинать темы
Вы не можете отвечать на сообщения
Вы не можете редактировать свои сообщения
Вы не можете удалять свои сообщения
Вы не можете голосовать в опросах
Вы не можете прикреплять файлы к сообщениям
Вы не можете скачивать файлы