1812-1815. Заграничный Поход. Серии 1-4 (из 4) (Павел Тупик, Андрей Верещагин) [2014, Документальный | Реконструкция, HDTV 720p]

 
Автор Сообщение

TorrentFilm ®

Пол:

Стаж: 2 года

Сообщений: 7741



Награды: Нет

Торрент-статистика

Создавать темы 24-Июн-2015 00:09

[Цитировать]

1812-1815. Заграничный Поход- Год выпуска: 2014
Страна: Россия
Студия: Первый Канал HD | Star Media | "Бабич-Дизайн"
Жанр: Документальный | Реконструкция
Общая продолжительность: 3:25:19
Продюсеры: Влад Ряшин, Валерий Бабич, Константин Эрнст, Сергей Титинков
Автор сценария: Марина Бандиленко
Режиссеры-постановщики: Павел Тупик, Андрей Верещагин-Описание: В 2012 году прошло 200 лет со дня Бородинской битвы и изгнания из Российской империи наполеоновских войск. В 2013 году исполнилось 200 лет сражению под Лейпцигом, самому крупному сражению эпохи, названному "Битвой народов". В 2014 году отмечали 200-летие взятия Парижа, а в июне 2015 года пройдет ровно 200 лет с момента битвы при Ватерлоо, где войска Наполеона были окончательно и бесповоротно разгромлены.-Автор рипа: lrn
Автор записи: Generalfilm
Сэмпл: sendfile-Тип релиза: HDTV 720p
Контейнер: MKV
Видео: 1280x720 (16:9), 25,000 fps, H264, ~4000 kbps avg, ~0.174 bit/pixel
Аудио: 48 kHz, AC3 Dolby Digital, 3/2 (L,C,R,l,r) + LFE ch, ~384.00 kbps avg-

Продолжительность

Серия №1 (0:54:36)Серия №2 (0:52:09)Серия №3 (0:48:55)Серия №4 (0:49:38)

MediaInfo1812-1815.Zagranichniy.Pohod.(01).2014.HDTV.720p.x264-lrn.mkv

GeneralUnique ID : 183518710817354625838084480605545966748 (0x8A106B0572295876A71CD826C3F22C9C)Complete name : E:\uTorrent.Temp\Temp\1812-1815.Zagranichniy.Pohod.2014.HDTV.720p.x264-lrn\1812-1815.Zagranichniy.Pohod.(01).2014.HDTV.720p.x264-lrn.mkvFormat : MatroskaFormat version : Version 4 / Version 2File size : 1.67 GiBDuration : 54mn 36sOverall bit rate : 4 385 KbpsMovie name : 1812-1815.Zagranichniy.Pohod.2015.HDTV.720p.x264-lrnEncoded date : UTC 2010-02-22 21:41:31Writing application : mkvmerge v5.9.0 ('On The Loose') built on Dec 9 2012 15:37:01Writing library : libebml v1.3.0 + libmatroska v1.4.0DURATION : 00:54:36.200000000NUMBER_OF_FRAMES : 81905NUMBER_OF_BYTES : 1637896621_STATISTICS_WRITING_APP : mkvmerge v7.7.0 ('Six Voices') 32bit built on Feb 28 2015 23:23:00_STATISTICS_WRITING_DATE_UT : 2015-06-12 15:06:32_STATISTICS_TAGS : BPS DURATION NUMBER_OF_FRAMES NUMBER_OF_BYTES
VideoID : 1Format : AVCFormat/Info : Advanced Video CodecFormat profile : High@L4.1Format settings, CABAC : YesFormat settings, ReFrames : 8 framesCodec ID : V_MPEG4/ISO/AVCDuration : 54mn 36sBit rate : 4 000 KbpsWidth : 1 280 pixelsHeight : 720 pixelsDisplay aspect ratio : 16:9Frame rate mode : ConstantFrame rate : 25.000 fpsColor space : YUVChroma subsampling : 4:2:0Bit depth : 8 bitsScan type : ProgressiveBits/(Pixel*Frame) : 0.174Stream size : 1.49 GiB (89%)Writing library : x264 core 146 r2538 121396cEncoding settings : cabac=1 / ref=8 / deblock=1:-3:-3 / analyse=0x3:0x133 / me=umh / subme=9 / psy=1 / psy_rd=1.00:0.00 / mixed_ref=1 / me_range=32 / chroma_me=1 / trellis=2 / 8x8dct=1 / cqm=0 / deadzone=21,11 / fast_pskip=1 / chroma_qp_offset=-2 / threads=12 / lookahead_threads=2 / sliced_threads=0 / nr=0 / decimate=1 / interlaced=0 / bluray_compat=0 / constrained_intra=0 / bframes=8 / b_pyramid=2 / b_adapt=2 / b_bias=0 / direct=3 / weightb=1 / open_gop=0 / weightp=2 / keyint=250 / keyint_min=25 / scenecut=40 / intra_refresh=0 / rc_lookahead=50 / rc=2pass / mbtree=1 / bitrate=4000 / ratetol=1.0 / qcomp=0.60 / qpmin=0 / qpmax=69 / qpstep=4 / cplxblur=20.0 / qblur=0.5 / vbv_maxrate=62500 / vbv_bufsize=78125 / nal_hrd=none / filler=0 / ip_ratio=1.40 / aq=1:1.00Default : YesForced : No
AudioID : 2Format : AC-3Format/Info : Audio Coding 3Mode extension : CM (complete main)Format settings, Endianness : BigCodec ID : A_AC3Duration : 54mn 36sBit rate mode : ConstantBit rate : 384 KbpsChannel(s) : 6 channelsChannel positions : Front: L C R, Side: L R, LFESampling rate : 48.0 KHzCompression mode : LossyStream size : 150 MiB (9%)Language : RussianDefault : YesForced : No

1812-1815.Zagranichniy.Pohod.(02).2014.HDTV.720p.x264-lrn.mkv

GeneralUnique ID : 205907219272100894869263897844426401642 (0x9AE849B62F3B00E28EB657B3C73AE76A)Complete name : E:\uTorrent.Temp\Temp\1812-1815.Zagranichniy.Pohod.2014.HDTV.720p.x264-lrn\1812-1815.Zagranichniy.Pohod.(02).2014.HDTV.720p.x264-lrn.mkvFormat : MatroskaFormat version : Version 4 / Version 2File size : 1.60 GiBDuration : 52mn 9sOverall bit rate : 4 386 KbpsMovie name : 1812-1815.Zagranichniy.Pohod.2015.HDTV.720p.x264-lrnEncoded date : UTC 2010-02-22 21:41:31Writing application : mkvmerge v5.9.0 ('On The Loose') built on Dec 9 2012 15:37:01Writing library : libebml v1.3.0 + libmatroska v1.4.0DURATION : 00:52:09.400000000NUMBER_OF_FRAMES : 78235NUMBER_OF_BYTES : 1564926631_STATISTICS_WRITING_APP : mkvmerge v7.7.0 ('Six Voices') 32bit built on Feb 28 2015 23:23:00_STATISTICS_WRITING_DATE_UT : 2015-06-12 17:12:07_STATISTICS_TAGS : BPS DURATION NUMBER_OF_FRAMES NUMBER_OF_BYTES
VideoID : 1Format : AVCFormat/Info : Advanced Video CodecFormat profile : High@L4.1Format settings, CABAC : YesFormat settings, ReFrames : 8 framesCodec ID : V_MPEG4/ISO/AVCDuration : 52mn 9sBit rate : 4 000 KbpsWidth : 1 280 pixelsHeight : 720 pixelsDisplay aspect ratio : 16:9Frame rate mode : ConstantFrame rate : 25.000 fpsColor space : YUVChroma subsampling : 4:2:0Bit depth : 8 bitsScan type : ProgressiveBits/(Pixel*Frame) : 0.174Stream size : 1.43 GiB (89%)Writing library : x264 core 146 r2538 121396cEncoding settings : cabac=1 / ref=8 / deblock=1:-3:-3 / analyse=0x3:0x133 / me=umh / subme=9 / psy=1 / psy_rd=1.00:0.00 / mixed_ref=1 / me_range=32 / chroma_me=1 / trellis=2 / 8x8dct=1 / cqm=0 / deadzone=21,11 / fast_pskip=1 / chroma_qp_offset=-2 / threads=12 / lookahead_threads=2 / sliced_threads=0 / nr=0 / decimate=1 / interlaced=0 / bluray_compat=0 / constrained_intra=0 / bframes=8 / b_pyramid=2 / b_adapt=2 / b_bias=0 / direct=3 / weightb=1 / open_gop=0 / weightp=2 / keyint=250 / keyint_min=25 / scenecut=40 / intra_refresh=0 / rc_lookahead=50 / rc=2pass / mbtree=1 / bitrate=4000 / ratetol=1.0 / qcomp=0.60 / qpmin=0 / qpmax=69 / qpstep=4 / cplxblur=20.0 / qblur=0.5 / vbv_maxrate=62500 / vbv_bufsize=78125 / nal_hrd=none / filler=0 / ip_ratio=1.40 / aq=1:1.00Default : YesForced : No
AudioID : 2Format : AC-3Format/Info : Audio Coding 3Mode extension : CM (complete main)Format settings, Endianness : BigCodec ID : A_AC3Duration : 52mn 9sBit rate mode : ConstantBit rate : 384 KbpsChannel(s) : 6 channelsChannel positions : Front: L C R, Side: L R, LFESampling rate : 48.0 KHzCompression mode : LossyStream size : 143 MiB (9%)Language : RussianDefault : YesForced : No

1812-1815.Zagranichniy.Pohod.(03).2014.HDTV.720p.x264-lrn.mkv

GeneralUnique ID : 171162471635444502962445504374890093926 (0x80C4B16506F9356499F22A3262BCDD66)Complete name : E:\uTorrent.Temp\Temp\1812-1815.Zagranichniy.Pohod.2014.HDTV.720p.x264-lrn\1812-1815.Zagranichniy.Pohod.(03).2014.HDTV.720p.x264-lrn.mkvFormat : MatroskaFormat version : Version 4 / Version 2File size : 1.50 GiBDuration : 48mn 55sOverall bit rate : 4 386 KbpsMovie name : 1812-1815.Zagranichniy.Pohod.2015.HDTV.720p.x264-lrnEncoded date : UTC 2010-02-22 21:41:31Writing application : mkvmerge v5.9.0 ('On The Loose') built on Dec 9 2012 15:37:01Writing library : libebml v1.3.0 + libmatroska v1.4.0DURATION : 00:48:55.040000000NUMBER_OF_FRAMES : 73376NUMBER_OF_BYTES : 1467647640_STATISTICS_WRITING_APP : mkvmerge v7.7.0 ('Six Voices') 32bit built on Feb 28 2015 23:23:00_STATISTICS_WRITING_DATE_UT : 2015-06-12 19:48:15_STATISTICS_TAGS : BPS DURATION NUMBER_OF_FRAMES NUMBER_OF_BYTES
VideoID : 1Format : AVCFormat/Info : Advanced Video CodecFormat profile : High@L4.1Format settings, CABAC : YesFormat settings, ReFrames : 8 framesCodec ID : V_MPEG4/ISO/AVCDuration : 48mn 55sBit rate : 4 000 KbpsWidth : 1 280 pixelsHeight : 720 pixelsDisplay aspect ratio : 16:9Frame rate mode : ConstantFrame rate : 25.000 fpsColor space : YUVChroma subsampling : 4:2:0Bit depth : 8 bitsScan type : ProgressiveBits/(Pixel*Frame) : 0.174Stream size : 1.34 GiB (89%)Writing library : x264 core 146 r2538 121396cEncoding settings : cabac=1 / ref=8 / deblock=1:-3:-3 / analyse=0x3:0x133 / me=umh / subme=9 / psy=1 / psy_rd=1.00:0.00 / mixed_ref=1 / me_range=32 / chroma_me=1 / trellis=2 / 8x8dct=1 / cqm=0 / deadzone=21,11 / fast_pskip=1 / chroma_qp_offset=-2 / threads=12 / lookahead_threads=2 / sliced_threads=0 / nr=0 / decimate=1 / interlaced=0 / bluray_compat=0 / constrained_intra=0 / bframes=8 / b_pyramid=2 / b_adapt=2 / b_bias=0 / direct=3 / weightb=1 / open_gop=0 / weightp=2 / keyint=250 / keyint_min=25 / scenecut=40 / intra_refresh=0 / rc_lookahead=50 / rc=2pass / mbtree=1 / bitrate=4000 / ratetol=1.0 / qcomp=0.60 / qpmin=0 / qpmax=69 / qpstep=4 / cplxblur=20.0 / qblur=0.5 / vbv_maxrate=62500 / vbv_bufsize=78125 / nal_hrd=none / filler=0 / ip_ratio=1.40 / aq=1:1.00Default : YesForced : No
AudioID : 2Format : AC-3Format/Info : Audio Coding 3Mode extension : CM (complete main)Format settings, Endianness : BigCodec ID : A_AC3Duration : 48mn 55sBit rate mode : ConstantBit rate : 384 KbpsChannel(s) : 6 channelsChannel positions : Front: L C R, Side: L R, LFESampling rate : 48.0 KHzCompression mode : LossyStream size : 134 MiB (9%)Language : RussianDefault : YesForced : No

1812-1815.Zagranichniy.Pohod.(04).2014.HDTV.720p.x264-lrn.mkv

GeneralUnique ID : 179817290342893498779711053099218815587 (0x87478CE6F2D445ABB7539B5F40ECCA63)Complete name : E:\uTorrent.Temp\Temp\1812-1815.Zagranichniy.Pohod.2014.HDTV.720p.x264-lrn\1812-1815.Zagranichniy.Pohod.(04).2015.HDTV.720p.x264-lrn.mkvFormat : MatroskaFormat version : Version 4 / Version 2File size : 1.52 GiBDuration : 49mn 38sOverall bit rate : 4 386 KbpsMovie name : 1812-1815.Zagranichniy.Pohod.2015.HDTV.720p.x264-lrnEncoded date : UTC 2010-02-22 21:41:31Writing application : mkvmerge v5.9.0 ('On The Loose') built on Dec 9 2012 15:37:01Writing library : libebml v1.3.0 + libmatroska v1.4.0DURATION : 00:49:38.400000000NUMBER_OF_FRAMES : 74460NUMBER_OF_BYTES : 1489223808_STATISTICS_WRITING_APP : mkvmerge v7.7.0 ('Six Voices') 32bit built on Feb 28 2015 23:23:00_STATISTICS_WRITING_DATE_UT : 2015-06-13 05:31:35_STATISTICS_TAGS : BPS DURATION NUMBER_OF_FRAMES NUMBER_OF_BYTES
VideoID : 1Format : AVCFormat/Info : Advanced Video CodecFormat profile : High@L4.1Format settings, CABAC : YesFormat settings, ReFrames : 8 framesCodec ID : V_MPEG4/ISO/AVCDuration : 49mn 38sBit rate : 4 000 KbpsWidth : 1 280 pixelsHeight : 720 pixelsDisplay aspect ratio : 16:9Frame rate mode : ConstantFrame rate : 25.000 fpsColor space : YUVChroma subsampling : 4:2:0Bit depth : 8 bitsScan type : ProgressiveBits/(Pixel*Frame) : 0.174Stream size : 1.36 GiB (89%)Writing library : x264 core 146 r2538 121396cEncoding settings : cabac=1 / ref=8 / deblock=1:-3:-3 / analyse=0x3:0x133 / me=umh / subme=9 / psy=1 / psy_rd=1.00:0.00 / mixed_ref=1 / me_range=32 / chroma_me=1 / trellis=2 / 8x8dct=1 / cqm=0 / deadzone=21,11 / fast_pskip=1 / chroma_qp_offset=-2 / threads=12 / lookahead_threads=2 / sliced_threads=0 / nr=0 / decimate=1 / interlaced=0 / bluray_compat=0 / constrained_intra=0 / bframes=8 / b_pyramid=2 / b_adapt=2 / b_bias=0 / direct=3 / weightb=1 / open_gop=0 / weightp=2 / keyint=250 / keyint_min=25 / scenecut=40 / intra_refresh=0 / rc_lookahead=50 / rc=2pass / mbtree=1 / bitrate=4000 / ratetol=1.0 / qcomp=0.60 / qpmin=0 / qpmax=69 / qpstep=4 / cplxblur=20.0 / qblur=0.5 / vbv_maxrate=62500 / vbv_bufsize=78125 / nal_hrd=none / filler=0 / ip_ratio=1.40 / aq=1:1.00Default : YesForced : No
AudioID : 2Format : AC-3Format/Info : Audio Coding 3Mode extension : CM (complete main)Format settings, Endianness : BigCodec ID : A_AC3Duration : 49mn 38sBit rate mode : ConstantBit rate : 384 KbpsChannel(s) : 6 channelsChannel positions : Front: L C R, Side: L R, LFESampling rate : 48.0 KHzCompression mode : LossyStream size : 136 MiB (9%)Language : RussianDefault : YesForced : No

x264 log1812-1815.Zagranichniy.Pohod.(01).2014.HDTV.720p.x264-lrn.mkv

raw [info]: 1280x720p 1:1 @ 25/1 fps (cfr)x264 [info]: using SAR=1/1x264 [info]: using cpu capabilities: MMX2 SSE2Fast SSSE3 SSE4.2 AVXx264 [info]: profile High, level 4.1x264 [info]: frame I:379 Avg QP:11.29 size:135818x264 [info]: frame P:21998 Avg QP:14.04 size: 48974x264 [info]: frame B:59528 Avg QP:16.77 size: 8552x264 [info]: consecutive B-frames: 1.6% 4.1% 3.6% 87.8% 1.2% 1.1% 0.1% 0.4% 0.2%x264 [info]: mb I I16..4: 6.9% 73.7% 19.4%x264 [info]: mb P I16..4: 2.1% 15.4% 2.2% P16..4: 34.6% 23.7% 15.4% 1.0% 0.4% skip: 5.2%x264 [info]: mb B I16..4: 0.2% 1.2% 0.2% B16..8: 25.7% 7.7% 2.1% direct: 5.4% skip:57.5% L0:35.7% L1:44.3% BI:20.0%x264 [info]: 8x8 transform intra:77.8% inter:49.7%x264 [info]: direct mvs spatial:98.6% temporal:1.4%x264 [info]: coded y,uvDC,uvAC intra: 78.7% 79.8% 59.2% inter: 21.4% 18.9% 4.2%x264 [info]: i16 v,h,dc,p: 36% 18% 9% 37%x264 [info]: i8 v,h,dc,ddl,ddr,vr,hd,vl,hu: 16% 13% 15% 7% 9% 10% 9% 10% 11%x264 [info]: i4 v,h,dc,ddl,ddr,vr,hd,vl,hu: 19% 13% 10% 8% 11% 11% 10% 9% 10%x264 [info]: i8c dc,h,v,p: 43% 24% 23% 9%x264 [info]: Weighted P-Frames: Y:6.4% UV:3.8%x264 [info]: ref P L0: 59.0% 10.1% 15.6% 4.9% 3.7% 2.6% 2.4% 1.6% 0.1% 0.0%x264 [info]: ref B L0: 85.4% 9.1% 2.5% 1.2% 0.8% 0.6% 0.4%x264 [info]: ref B L1: 97.7% 2.3%x264 [info]: kb/s:3999.50encoded 81905 frames, 14.43 fps, 3999.50 kb/s

1812-1815.Zagranichniy.Pohod.(02).2014.HDTV.720p.x264-lrn.mkv

raw [info]: 1280x720p 1:1 @ 25/1 fps (cfr)x264 [info]: using SAR=1/1x264 [info]: using cpu capabilities: MMX2 SSE2Fast SSSE3 SSE4.2 AVXx264 [info]: profile High, level 4.1x264 [info]: frame I:402 Avg QP:11.80 size:142321x264 [info]: frame P:21739 Avg QP:14.46 size: 47589x264 [info]: frame B:56094 Avg QP:17.80 size: 8435x264 [info]: consecutive B-frames: 2.6% 4.8% 3.7% 86.9% 0.9% 0.8% 0.1% 0.2% 0.1%x264 [info]: mb I I16..4: 5.4% 74.8% 19.8%x264 [info]: mb P I16..4: 2.0% 14.5% 2.0% P16..4: 34.1% 23.4% 16.2% 1.3% 0.5% skip: 6.0%x264 [info]: mb B I16..4: 0.2% 1.2% 0.1% B16..8: 27.8% 8.1% 2.2% direct: 4.8% skip:55.4% L0:34.7% L1:42.8% BI:22.5%x264 [info]: 8x8 transform intra:77.9% inter:50.3%x264 [info]: direct mvs spatial:98.3% temporal:1.7%x264 [info]: coded y,uvDC,uvAC intra: 77.7% 79.2% 54.8% inter: 21.1% 18.5% 4.1%x264 [info]: i16 v,h,dc,p: 33% 20% 8% 40%x264 [info]: i8 v,h,dc,ddl,ddr,vr,hd,vl,hu: 15% 14% 13% 7% 9% 10% 10% 10% 11%x264 [info]: i4 v,h,dc,ddl,ddr,vr,hd,vl,hu: 18% 13% 10% 7% 11% 12% 10% 9% 10%x264 [info]: i8c dc,h,v,p: 43% 25% 22% 10%x264 [info]: Weighted P-Frames: Y:3.3% UV:1.7%x264 [info]: ref P L0: 60.3% 11.9% 14.6% 4.3% 3.3% 2.1% 2.1% 1.3% 0.1% 0.0%x264 [info]: ref B L0: 87.5% 7.8% 2.1% 1.1% 0.7% 0.5% 0.3%x264 [info]: ref B L1: 97.9% 2.1%x264 [info]: kb/s:4000.58encoded 78235 frames, 13.34 fps, 4000.58 kb/s

1812-1815.Zagranichniy.Pohod.(03).2014.HDTV.720p.x264-lrn.mkv

raw [info]: 1280x720p 1:1 @ 25/1 fps (cfr)x264 [info]: using SAR=1/1x264 [info]: using cpu capabilities: MMX2 SSE2Fast SSSE3 SSE4.2 AVXx264 [info]: profile High, level 4.1x264 [info]: frame I:344 Avg QP:11.38 size:141403x264 [info]: frame P:20009 Avg QP:14.08 size: 49123x264 [info]: frame B:53023 Avg QP:17.26 size: 8225x264 [info]: consecutive B-frames: 2.0% 4.4% 3.6% 88.2% 0.8% 0.5% 0.1% 0.3% 0.0%x264 [info]: mb I I16..4: 6.0% 73.1% 20.9%x264 [info]: mb P I16..4: 2.0% 15.9% 2.4% P16..4: 34.0% 22.6% 15.9% 1.1% 0.4% skip: 5.7%x264 [info]: mb B I16..4: 0.2% 1.2% 0.2% B16..8: 25.8% 7.5% 2.1% direct: 5.3% skip:57.7% L0:34.0% L1:43.5% BI:22.5%x264 [info]: 8x8 transform intra:77.5% inter:49.4%x264 [info]: direct mvs spatial:98.8% temporal:1.2%x264 [info]: coded y,uvDC,uvAC intra: 79.1% 79.2% 58.6% inter: 20.7% 19.1% 4.6%x264 [info]: i16 v,h,dc,p: 31% 21% 8% 40%x264 [info]: i8 v,h,dc,ddl,ddr,vr,hd,vl,hu: 16% 17% 14% 6% 8% 9% 9% 9% 11%x264 [info]: i4 v,h,dc,ddl,ddr,vr,hd,vl,hu: 19% 16% 10% 7% 10% 11% 10% 9% 10%x264 [info]: i8c dc,h,v,p: 44% 25% 22% 9%x264 [info]: Weighted P-Frames: Y:7.2% UV:5.2%x264 [info]: ref P L0: 60.8% 11.4% 14.5% 4.4% 3.3% 2.2% 2.0% 1.4% 0.1% 0.0%x264 [info]: ref B L0: 88.1% 7.4% 2.0% 1.0% 0.7% 0.5% 0.3%x264 [info]: ref B L1: 98.1% 1.9%x264 [info]: kb/s:4000.35encoded 73376 frames, 10.34 fps, 4000.35 kb/s

1812-1815.Zagranichniy.Pohod.(04).2014.HDTV.720p.x264-lrn.mkv

raw [info]: 1280x720p 1:1 @ 25/1 fps (cfr)x264 [info]: using SAR=1/1x264 [info]: using cpu capabilities: MMX2 SSE2Fast SSSE3 SSE4.2 AVXx264 [info]: profile High, level 4.1x264 [info]: frame I:328 Avg QP:10.35 size:154892x264 [info]: frame P:20188 Avg QP:12.90 size: 52196x264 [info]: frame B:53944 Avg QP:15.71 size: 7131x264 [info]: consecutive B-frames: 2.0% 3.8% 3.0% 89.4% 0.7% 0.6% 0.1% 0.3% 0.1%x264 [info]: mb I I16..4: 6.9% 70.7% 22.4%x264 [info]: mb P I16..4: 2.1% 14.2% 2.6% P16..4: 33.3% 23.2% 17.2% 1.1% 0.6% skip: 5.7%x264 [info]: mb B I16..4: 0.2% 1.0% 0.1% B16..8: 23.9% 6.5% 1.9% direct: 4.5% skip:61.9% L0:34.3% L1:45.7% BI:20.0%x264 [info]: 8x8 transform intra:75.1% inter:43.1%x264 [info]: direct mvs spatial:99.2% temporal:0.8%x264 [info]: coded y,uvDC,uvAC intra: 79.7% 85.2% 71.2% inter: 20.1% 19.6% 6.6%x264 [info]: i16 v,h,dc,p: 31% 24% 9% 36%x264 [info]: i8 v,h,dc,ddl,ddr,vr,hd,vl,hu: 16% 16% 17% 6% 8% 9% 9% 9% 11%x264 [info]: i4 v,h,dc,ddl,ddr,vr,hd,vl,hu: 19% 18% 11% 7% 9% 9% 9% 8% 9%x264 [info]: i8c dc,h,v,p: 45% 25% 21% 8%x264 [info]: Weighted P-Frames: Y:5.8% UV:3.7%x264 [info]: ref P L0: 61.5% 10.1% 14.9% 4.7% 3.2% 2.3% 1.9% 1.4% 0.1% 0.0%x264 [info]: ref B L0: 86.9% 8.6% 2.1% 1.0% 0.6% 0.5% 0.3%x264 [info]: ref B L1: 97.7% 2.3%x264 [info]: kb/s:4000.06encoded 74460 frames, 16.03 fps, 4000.06 kb/s

Скриншоты

-
[Профиль] [ЛС]
Показать сообщения:    

Текущее время: Сегодня 06:05

Часовой пояс: GMT



Вы не можете начинать темы
Вы не можете отвечать на сообщения
Вы не можете редактировать свои сообщения
Вы не можете удалять свои сообщения
Вы не можете голосовать в опросах
Вы не можете прикреплять файлы к сообщениям
Вы не можете скачивать файлы