1715: Король-Солнце умер! / La Mort de Louis XIV (1715: The Sun King is Dead !) (Сильви Февле / Sylvie Faiveley) [2015 г., Документально-игровой, история, SATRip]

 
Автор Сообщение

skorpionN ®

Пол:

Стаж: 1 год 8 месяцев

Сообщений: 592



Награды: 4 (Подробнее)

Mega Seeder 2 (Количество: 1) Top Releaser 2 (Количество: 1) Mega Seeder 1 (Количество: 1)
Торрент-статистика

Создавать темы 28-Авг-2016 07:35

[Цитировать]

1715: Король-Солнце умер! / La Mort de Louis XIV (1715: The Sun King is Dead !)
Год выпуска: 2015
Страна: Франция, ZED and France Télévisions
Жанр: Документально-игровой, история
Продолжительность: ~00:51:57
Перевод: Профессиональный (двухголосый), Видеофильм ТВ
Режиссер: Сильви Февле / Sylvie Faiveley
Описание: Людовик XIV де Бурбон, получивший при рождении имя Луи - Дьёдонне, также известный как "Король-Солнце", также Людовик Великий, - король Франции и Наварры с 14 мая 1643 г.
Правление Людовика XIV было самым долгим в истории. Его современники думали, что Король-Солнце не умрет никогда. Но летом 1715 года монарх умер от гангрены в возрасте 76 лет в своем архитектурном шедевре – Версальском дворце. Его агония длилась 23 дня, обнаружив некомпетентность лекарей, дворцовые интриги и ревность. Король-Солнце превратил свой уход из жизни в великолепное шоу, представленное публике. Фильм, снятый в Версале, соборе Нотр-Дам и в базилике Сен-Дени – дань уважения самому легендарному из королей Франции.
Качество: SATRip
Формат: AVI
Видео кодек: XviD
Аудио кодек: AC3
Видео: 720x400 25.00 fps 1800 kbps
Аудио: AC3 2ch, 48kHz, 192 kbps

Скриншоты


MediaInfo:

Format : AVI
Format/Info : Audio Video Interleave
File size : 742 MiB
Duration : 51 min
Overall bit rate : 1 997 kb/s
Writing application : TMPGEnc Video Mastering Works 6 Trial with Movie Plug-in Version. 6.1.5.26
Writing library : TMPGEnc Video Mastering Works 6 Trial with Movie Plug-in Version. 6.1.5.26
Video
ID : 0
Format : MPEG-4 Visual
Format profile : Advanced Simple@L5
Format settings, BVOP : 2
Format settings, QPel : No
Format settings, GMC : No warppoints
Format settings, Matrix : Default (H.263)
Muxing mode : Packed bitstream
Codec ID : XVID
Codec ID/Hint : XviD
Duration : 51 min
Bit rate : 1 798 kb/s
Width : 720 pixels
Height : 400 pixels
Display aspect ratio : 16:9
Frame rate : 25.000 FPS
Color space : YUV
Chroma subsampling : 4:2:0
Bit depth : 8 bits
Scan type : Progressive
Compression mode : Lossy
Bits/(Pixel*Frame) : 0.250
Stream size : 668 MiB (90%)
Writing library : XviD 73
Audio
ID : 1
Format : AC-3
Format/Info : Audio Coding 3
Mode extension : CM (complete main)
Format settings, Endianness : Big
Codec ID : 2000
Duration : 51 min
Bit rate mode : Constant
Bit rate : 192 kb/s
Channel(s) : 2 channels
Channel positions : Front: L R
Sampling rate : 48.0 kHz
Frame rate : 31.250 FPS (1536 spf)
Compression mode : Lossy
Stream size : 71.3 MiB (10%)
Alignment : Aligned on interleaves
Interleave, duration : 333 ms (8.34 video frames)
[Профиль] [ЛС]

KiruhaDelMar

Стаж: 1 год 8 месяцев

Сообщений: 248



Награды: Нет

Торрент-статистика

Создавать темы 28-Авг-2016 17:42 (спустя 10 часов)

[Цитировать]

не понял, а почему мне не сказал? Весь день вопросы какие то странные задавал, а по делу отморозил, видать маневр отвлекающий такой. ai Кому продался am
[Профиль] [ЛС]
Кто просматривает тему:

Показать сообщения:    

Текущее время: Сегодня 08:16

Часовой пояс: GMT



Вы не можете начинать темы
Вы не можете отвечать на сообщения
Вы не можете редактировать свои сообщения
Вы не можете удалять свои сообщения
Вы не можете голосовать в опросах
Вы не можете прикреплять файлы к сообщениям
Вы не можете скачивать файлы