15 дней в другом мире / 15 jours ailleurs (Дидье Бивель / Didier Bivel) [2013, Франция, драма, HDTV 1080i] MVO

 
Автор Сообщение

reversefile ®

Пол:

Стаж: 4 года 5 месяцев

Сообщений: 842

Откуда: ReverseFile.org



Награды: Нет

Торрент-статистика

Создавать темы 13-Авг-2014 18:26

[Цитировать]

15 дней в другом мире / 15 jours ailleurs Страна: Франция
Жанр: драма
Год выпуска: 2013
Продолжительность: 01:27:42
Перевод: Профессиональный (многоголосый закадровый)
Cубтитры: нет
Режиссер: Дидье Бивель / Didier Bivel
В ролях: Фатима Адум, Бернар Алан, Лоран Бато, Дидье Бурдон. Жюдит Шемла, Агат Дронне, Элина Ловенсон, Камиль Панонакль, Aude Saintier, Лусия Санчес
Описание: После нервного срыва и попытки покалечить себя Винсана помещают в психиатрическое отделение. Там к нему проникается дружескими чувствами пациентка Элен, которая отчаянно хочет вернуть своего сына и надеется, что Винсан ей в этом поможет.
Доп.информация:
В AVI от edich2 тут: http://torrentfilm.net/forum/viewtopic.php?t=4800776
Кинопоиск: http://www.kinopoisk.ru/film/723291/

Сэмпл: http://multi-up.com/991817
Тип релиза: HDTV 1080i
Контейнер: TS
Видео: AVC/H.264, PAL, 1920x1080 (16:9), 9028 Кбит/сек, 25.000 fps
Аудио: русский, MP-2, 48000 Hz, 192 Кбит/сек, 2 ch

MediaInfo

Видео
Идентификатор : 224 (0xE0)
Идентификатор меню : 1 (0x1)
Формат : AVC
Формат/Информация : Advanced Video Codec
Профиль формата : High@L4.1
Параметр CABAC формата : Да
Параметр ReFrames формата : 3 кадра
Идентификатор кодека : 27
Продолжительность : 1 ч. 27 м.
Вид битрейта : Постоянный
Битрейт : 9028 Кбит/сек
Ширина : 1920 пикселей
Высота : 1080 пикселей
Соотношение сторон : 16:9
Частота кадров : 25,000 кадров/сек
Стандарт вещания : PAL
Цветовое пространство : YUV
Субдискретизация насыщенности : 4:2:0
Битовая глубина : 8 бит
Тип развёртки : Чересстрочная
Порядок развёртки : Верхнее поле первое
Бит/(Пиксели*Кадры) : 0.174
Размер потока : 5,43 Гбайт (93%)
Основные цвета : BT.709
Характеристики трансфера : BT.709
Коэффициенты матрицы : BT.709
Аудио
Идентификатор : 192 (0xC0)
Идентификатор меню : 1 (0x1)
Формат : MPEG Audio
Версия формата : Version 1
Профиль формата : Layer 2
Идентификатор кодека : 3
Продолжительность : 1 ч. 27 м.
Вид битрейта : Постоянный
Битрейт : 192 Кбит/сек
Каналы : 2 канала
Частота : 48,0 КГц
Метод сжатия : С потерями
Задержка видео : 24 мс.
Размер потока : 120 Мбайт (2%)
Язык : Russian

Скриншот с названием фильма

Скриншоты

[Профиль] [ЛС]
Кто просматривает тему:

Показать сообщения:    

Текущее время: Сегодня 08:03

Часовой пояс: GMT



Вы не можете начинать темы
Вы не можете отвечать на сообщения
Вы не можете редактировать свои сообщения
Вы не можете удалять свои сообщения
Вы не можете голосовать в опросах
Вы не можете прикреплять файлы к сообщениям
Вы не можете скачивать файлы