1408 / 1408 (2007) BDRip 720p | Театральная версия / Theatrical Cut

 
Автор Сообщение

sergej644 ®

Пол:

Стаж: 4 года 11 месяцев

Сообщений: 6043

Откуда: Soviet Union



Награды: Нет

Торрент-статистика

Создавать темы 09-Фев-2015 10:05

[Цитировать]

Страна: США
Жанр: ужасы, детектив
Год выпуска: 2007
Продолжительность: 01:44:15
Перевод: Профессиональный (полное дублирование) + Оригинальный
Субтитры: русские, английские.-Режиссер: Микаэль Хофстрём / Mikael Håfström-В ролях: Джон Кьюсак (Mike Enslin), Сэмюэл Л. Джексон (Gerald Olin), Мэри МакКормак (Lily), Тони Шэлуб (Sam Farrell), Пол Бирчард (Mr. Innkeeper), Марго Лейкестер (Mrs. Innkeeper), Уолтер Льюис (Book Store Cashier), Эрик Мейерс (Man #1 at Book Signing), Дэвид Николсон (Man #2 at Book Signing), Холли Хэйес (Lady at Book Signing), Александра Силбер (Young Woman at Book Signing), Йохан Урб (Surfer Dude)
Дублёры: Пётр Иващенко (Mike Enslin), Олег Куценко (Gerald Olin), Юрий Меншагин (Sam Farrell), Юрий Маляров (Mr. Innkeeper), Елена Войновская (Mrs. Innkeeper), Илья Хвостиков (Book Store Cashier), Александр Рыжков, Борис Токарев, Михаил Тихонов, Полина Щербакова (Young Woman at Book Signing), Александра Остроухова, Алёна Ивченко (Mailbox Guy)-Описание: Известный писатель Майк Энслин, сочиняющий свои романы в жанре «ужасы», пишет очередную книгу о необычных явлениях и полтергейсте в отелях. Не верящий в существование загробной жизни, Энслин решает поселиться в печально известном номере 1408 гостиницы «Дельфин», который пустует многие годы: по слухам, там обитают привидения. Невзирая на предупреждения старшего менеджера мистера Джеральда Олина о грозящей опасности, упрямец настаивает на своем, даже не предполагая, каким кошмаром обернется предстоящая ночь...-
MPAA: PG-13 - Детям до 13 лет просмотр не желателен-Семпл-Качество: BDRip
Контейнер: MKV
Видео: AVC, 1280x544 (2.35:1), 5107 kbps, 23,976 fps, 0,306 bpp
Аудио №1: русский / AC3 / 5.1 / 48 kHz / 448 kbps
Аудио №2: английский / AC3 / 5.1 / 48 kHz / 448 kbps
Навигация по главам: есть-

Media Info

--------------------------------------------------------------------------------
x264 [info]: frame I:2568 Avg QP:17.21 size: 94072
x264 [info]: frame P:79213 Avg QP:19.93 size: 35695
x264 [info]: frame B:68194 Avg QP:21.09 size: 13452
--------------------------------------------------------------------------------
Format : Matroska
Format version : Version 2
File size : 4.37 GiB
Duration : 1h 44mn
Overall bit rate : 5 997 Kbps
Movie name : = 1408 / 1408 BDRip 720p by SC Kosmos =
Encoded date : UTC 2014-09-26 07:00:07
Writing application : mkvmerge v3.3.0 ('Language') gebaut am Mar 24 2010 14:59:24
Writing library : libebml v0.8.0 + libmatroska v0.9.0
Video
ID : 1
Format : AVC
Format/Info : Advanced Video Codec
Format profile : High@L4.1
Format settings, CABAC : Yes
Format settings, ReFrames : 10 frames
Codec ID : V_MPEG4/ISO/AVC
Duration : 1h 44mn
Bit rate : 5 107 Kbps
Width : 1 280 pixels
Height : 544 pixels
Display aspect ratio : 2.35:1
Frame rate : 23.976 fps
Color space : YUV
Chroma subsampling : 4:2:0
Bit depth : 8 bits
Scan type : Progressive
Bits/(Pixel*Frame) : 0.306
Stream size : 3.63 GiB (83%)
Title : 1408 / 1408 BDRip 720p by SC Kosmos
Writing library : x264 core 142 r2479 dd79a61
Encoding settings : cabac=1 / ref=10 / deblock=1:-3:-3 / analyse=0x3:0x113 / me=umh / subme=11 / psy=1 / psy_rd=1.00:0.00 / mixed_ref=1 / me_range=32 / chroma_me=1 / trellis=2 / 8x8dct=1 / cqm=0 / deadzone=21,11 / fast_pskip=0 / chroma_qp_offset=-2 / threads=12 / lookahead_threads=1 / sliced_threads=0 / nr=0 / decimate=1 / interlaced=0 / bluray_compat=0 / constrained_intra=0 / bframes=12 / b_pyramid=2 / b_adapt=1 / b_bias=0 / direct=3 / weightb=1 / open_gop=0 / weightp=2 / keyint=240 / keyint_min=23 / scenecut=40 / intra_refresh=0 / rc_lookahead=40 / rc=2pass / mbtree=0 / bitrate=5107 / ratetol=1.0 / qcomp=0.60 / qpmin=0 / qpmax=69 / qpstep=4 / cplxblur=20.0 / qblur=0.5 / vbv_maxrate=50000 / vbv_bufsize=50000 / nal_hrd=none / filler=0 / ip_ratio=1.40 / pb_ratio=1.30 / aq=1:1.00 / zones=141720,149974,b=0.26
Language : English
Default : No
Forced : No
Audio #1
ID : 2
Format : AC-3
Format/Info : Audio Coding 3
Mode extension : CM (complete main)
Codec ID : A_AC3
Duration : 1h 44mn
Bit rate mode : Constant
Bit rate : 448 Kbps
Channel(s) : 6 channels
Channel positions : Front: L C R, Side: L R, LFE
Sampling rate : 48.0 KHz
Bit depth : 16 bits
Compression mode : Lossy
Stream size : 334 MiB (7%)
Title : Дубляж
Language : Russian
Default : Yes
Forced : No
Audio #2
ID : 3
Format : AC-3
Format/Info : Audio Coding 3
Mode extension : CM (complete main)
Codec ID : A_AC3
Duration : 1h 44mn
Bit rate mode : Constant
Bit rate : 448 Kbps
Channel(s) : 6 channels
Channel positions : Front: L C R, Side: L R, LFE
Sampling rate : 48.0 KHz
Bit depth : 16 bits
Compression mode : Lossy
Stream size : 334 MiB (7%)
Language : English
Default : No
Forced : No
Text #1
ID : 4
Format : UTF-8
Codec ID : S_TEXT/UTF8
Codec ID/Info : UTF-8 Plain Text
Language : Russian
Default : No
Forced : No
Text #2
ID : 5
Format : UTF-8
Codec ID : S_TEXT/UTF8
Codec ID/Info : UTF-8 Plain Text
Language : English
Default : No
Forced : No
Menu
00:00:00.000 : en:00:00:00.000
00:04:50.497 : en:00:04:50.497
00:08:21.625 : en:00:08:21.625
00:09:49.087 : en:00:09:49.087
00:14:45.091 : en:00:14:45.091
00:23:22.317 : en:00:23:22.317
00:27:27.644 : en:00:27:27.644
00:33:48.901 : en:00:33:48.901
00:39:00.795 : en:00:39:00.795
00:43:26.811 : en:00:43:26.811
00:48:26.570 : en:00:48:26.570
00:51:33.130 : en:00:51:33.130
00:58:48.148 : en:00:58:48.148
01:04:47.757 : en:01:04:47.757
01:10:20.423 : en:01:10:20.423
01:15:31.193 : en:01:15:31.193
01:23:04.688 : en:01:23:04.688
01:28:37.436 : en:01:28:37.436
01:35:45.530 : en:01:35:45.530
01:38:23.104 : en:01:38:23.104
-

Скриншоты


[Профиль] [ЛС]
Кто просматривает тему:

Форум Тема Автор Размер
Фильмы (HD Rips | 720p, 1080p) 1408 / 1408 (2007) BDRip 720p от Leonardo and Scarabey | Режиссерская версия sergej644 3.84 GB
Показать сообщения:    

Текущее время: Сегодня 14:44

Часовой пояс: GMT



Вы не можете начинать темы
Вы не можете отвечать на сообщения
Вы не можете редактировать свои сообщения
Вы не можете удалять свои сообщения
Вы не можете голосовать в опросах
Вы не можете прикреплять файлы к сообщениям
Вы не можете скачивать файлы