14+ (2015) WEB-DLRip 1080p | iTunes

 
Автор Сообщение

достали все ®

Пол:

Стаж: 1 год 8 месяцев

Сообщений: 6581



Награды: 12 (Подробнее)

Top Releaser 4 (Количество: 1) Mega Releaser 1 (Количество: 1) За внесенный вклад в развитие сайта (Количество: 1)
Торрент-статистика

Создавать темы 17-Ноя-2015 05:23

[Цитировать]

Информация о фильме
Оригинальное название: 14+
Год выхода: 2015
Жанр: мелодрама
Режиссер: Андрей Зайцев
В ролях: Глеб Калюжный, Ульяна Васькович, Ольга Озоллапиня, Дмитрий Блохин, Ирина Фролова, Шандор Беркеши, Владислав Горячкин, Дмитрий Баринов, Даниил Пикула, Ксения Пахомова
О фильме: Это история первой любви в 14 лет, разворачивающаяся в спальном районе большого города. История современных Ромео и Джульетты, живущих и в социальных сетях, и на улице с их жесткими правилами и законами, по которым влюбленные не хотят и не будут играть. Чтобы быть вместе, главным героям придется преодолеть многое: их школы враждуют между собой, поэтому их любовь — предательство своего района и своей компании. Родители не готовы принять тот факт, что дети стремительно взрослеют и что каждый подросток — личность, имеющий право выбора. Им мешают собственные комплексы и неуверенность в себе, боязнь сделать первый шаг и страх, что тебя не любят и оттолкнут. Но, несмотря на все эти препятствия, настоящая любовь победит всё.

Выпущено: Россия / September Studio
Продолжительность: 01:46:28
Озвучивание: Оригинальное [iTunes]
Файл
Формат: MKV
Качество: WEB-DLRip 1080p
Видео: MPEG-4 AVC, 5120 kb/s, 1920x1080
Аудио: AC3, 384 kb/s (6 ch)
Субтитры: отсутствуют

MI

Общее
Уникальный идентификатор : 185765594022611491197009699287620321910 (0x8BC126EA8DB4D46499208192E1030276)
Формат : Matroska
Версия формата : Version 4 / Version 2
Размер файла : 4,07 Гбайт
Продолжительность : 1 ч. 46 м.
Общий поток : 5479 Кбит/сек
Дата кодирования : UTC 2015-11-16 22:12:32
Программа кодирования : mkvmerge v7.3.0 ('Nouages') 32bit built on Oct 22 2014 18:44:01
Библиотека кодирования : libebml v1.3.0 + libmatroska v1.4.1
_STATISTICS_WRITING_APP : mkvmerge v7.3.0 ('Nouages') 32bit built on Oct 22 2014 18:44:01
_STATISTICS_WRITING_DATE_UTC : 2015-11-16 22:12:32
_STATISTICS_TAGS : BPS DURATION NUMBER_OF_FRAMES NUMBER_OF_BYTES
DURATION : 01:46:28.320000000
NUMBER_OF_FRAMES : 199635
NUMBER_OF_BYTES : 306639360
Видео
Идентификатор : 1
Формат : AVC
Формат/Информация : Advanced Video Codec
Профиль формата : High@L4.0
Параметр CABAC формата : Да
Параметр ReFrames формата : 4 кадра
Идентификатор кодека : V_MPEG4/ISO/AVC
Продолжительность : 1 ч. 46 м.
Битрейт : 5120 Кбит/сек
Ширина : 1920 пикселей
Высота : 1080 пикселей
Соотношение сторон : 16:9
Режим частоты кадров : Постоянный
Частота кадров : 25,000 кадров/сек
Цветовое пространство : YUV
Субдискретизация насыщенности : 4:2:0
Битовая глубина : 8 бит
Тип развёртки : Прогрессивная
Бит/(Пиксели*Кадры) : 0.099
Размер потока : 3,71 Гбайт (91%)
Библиотека кодирования : x264 core 142
Настройки программы : cabac=1 / ref=3 / deblock=1:0:0 / analyse=0x3:0x113 / me=hex / subme=7 / psy=1 / psy_rd=1.00:0.00 / mixed_ref=1 / me_range=16 / chroma_me=1 / trellis=1 / 8x8dct=1 / cqm=0 / deadzone=21,11 / fast_pskip=1 / chroma_qp_offset=-2 / threads=36 / lookahead_threads=6 / sliced_threads=0 / nr=0 / decimate=1 / interlaced=0 / bluray_compat=0 / constrained_intra=0 / bframes=6 / b_pyramid=2 / b_adapt=1 / b_bias=0 / direct=1 / weightb=1 / open_gop=0 / weightp=2 / keyint=200 / keyint_min=20 / scenecut=0 / intra_refresh=0 / rc_lookahead=40 / rc=2pass / mbtree=1 / bitrate=5120 / ratetol=1.0 / qcomp=0.60 / qpmin=0 / qpmax=69 / qpstep=4 / cplxblur=20.0 / qblur=0.5 / vbv_maxrate=7680 / vbv_bufsize=20480 / nal_hrd=none / filler=0 / ip_ratio=1.40 / aq=1:1.00
Язык : English
Default : Да
Forced : Нет
Аудио
Идентификатор : 2
Формат : AC-3
Формат/Информация : Audio Coding 3
Расширение режима : CM (complete main)
Параметр Endianness формата : Big
Идентификатор кодека : A_AC3
Продолжительность : 1 ч. 46 м.
Вид битрейта : Постоянный
Битрейт : 384 Кбит/сек
Каналы : 6 каналов
Расположение каналов : Front: L C R, Side: L R, LFE
Частота : 48,0 КГц
Битовая глубина : 16 бит
Метод сжатия : С потерями
Задержка видео : 24 мс.
Размер потока : 292 Мбайт (7%)
Default : Да
Forced : Нет

Скриншоты

[Профиль] [ЛС]
Показать сообщения:    

Текущее время: Сегодня 06:08

Часовой пояс: GMT



Вы не можете начинать темы
Вы не можете отвечать на сообщения
Вы не можете редактировать свои сообщения
Вы не можете удалять свои сообщения
Вы не можете голосовать в опросах
Вы не можете прикреплять файлы к сообщениям
Вы не можете скачивать файлы