13 часов: Тайные солдаты Бенгази / 13 Hours: The Secret Soldiers of Benghazi (2016) BDRip | Лицензия

 
Автор Сообщение

Russian Mafia ®

Пол:

Стаж: 1 год 8 месяцев

Сообщений: 4247



Награды: 10 (Подробнее)

Mega Seeder 1 (Количество: 1) Top Releaser 2 (Количество: 1) Top Releaser 4 (Количество: 1)
Торрент-статистика

Создавать темы 03-Июн-2016 17:38

[Цитировать]

Информация о фильме
Название: 13 часов: Тайные солдаты Бенгази
Оригинальное название: 13 Hours: The Secret Soldiers of Benghazi
Год выхода: 2016
Жанр: Боевик, триллер, драма, военный
Режиссер: Майкл Бэй
В ролях: Джон Красински, Джеймс Бэдж Дэйл, Пабло Шрайбер, Дэвид Денман, Доминик Фумуса, Макс Мартини, Алексия Бальер, Дэвид Костабайл, Пейман Моаади, Мэтт Летчер
О фильме:
2012 год. Бенгази, Ливия. Группа террористов решает «отпраздновать» события 11 сентября нападением на американское посольство. Шестерке бойцов из элитного спецотряда приказано вмешаться только в крайнем случае. Но когда под угрозой десятки жизней, долг и совесть берут верх над субординацией. И мужественные солдаты без колебаний вступают в бой с яростной группировкой боевиков. Бой, который для всех шестерых, скорее всего, станет последним.

Страна: США
Студия: 3 Arts Entertainment, Dune Films, Latina Pictures
Продолжительность: 02:24:29
Перевод: Профессиональный (полное дублирование) [BD CEE]
Файл
Качество: BDRip (исх. 13 Hours The Secret Soldiers of Benghazi 2016 COMPLETE BLURAY-LAZERS)
Кодек: XviD
Видео: 720x304 (2,35:1), 23,976 fps, Xvid ~1248 kbps avg, 0.238 bit/pixel
Звук: 48 kHz, АС3, 2 ch, ~192.00 kbps avg | русский | Профессиональный (полное дублирование) [BD CEE]
Субтитры: Русские (на надписи, вшитые, форсированные)
Семпл

Инфо-файл

Общее
Полное имя : D:TorrentsЗавершенные13 Hours The Secret Soldiers of Benghazi.2016.BDRip13 Hours The Secret Soldiers of Benghazi.2016.BDRip.avi
Формат : AVI
Формат/Информация : Audio Video Interleave
Размер файла : 1,46 Гбайт
Продолжительность : 2 ч. 24 м.
Общий поток : 1448 Кбит/сек
Программа кодирования : VirtualDubMod 1.5.10.3 (build 2550/release)
Библиотека кодирования : VirtualDubMod build 2550/release
Видео
Идентификатор : 0
Формат : MPEG-4 Visual
Профиль формата : Advanced Simple@L5
Параметр BVOP формата : 1
Параметр QPel формата : Нет
Параметр GMC формата : Без точки перехода
Параметр матрицы формата : Выборочная
Идентификатор кодека : XVID
Идентификатор кодека/Подсказка : XviD
Продолжительность : 2 ч. 24 м.
Битрейт : 1247 Кбит/сек
Ширина : 720 пикселей
Высота : 304 пикселя
Соотношение сторон : 2,35:1
Частота кадров : 23,976 (23976/1000) кадра/сек
Цветовое пространство : YUV
Субдискретизация насыщенности : 4:2:0
Битовая глубина : 8 бит
Тип развёртки : Прогрессивная
Метод сжатия : С потерями
Бит/(Пиксели*Кадры) : 0.238
Размер потока : 1,26 Гбайт (86%)
Библиотека кодирования : XviD 67
Аудио
Идентификатор : 1
Формат : AC-3
Формат/Информация : Audio Coding 3
Расширение режима : CM (complete main)
Параметр Endianness формата : Big
Идентификатор кодека : 2000
Продолжительность : 2 ч. 24 м.
Вид битрейта : Постоянный
Битрейт : 192 Кбит/сек
Каналы : 2 канала
Расположение каналов : Front: L R
Частота : 48,0 КГц
Частота кадров : 31,250 кадров/сек (1536 spf)
Метод сжатия : С потерями
Размер потока : 198 Мбайт (13%)
Выравнивание : Разделение по промежуткам
Продолжительность промежутка : 42 мс. (1,00 видеокадр)
Время предзагрузки промежутка : 500 мс.

Скриншоты


[Профиль] [ЛС]
Кто просматривает тему:

Показать сообщения:    

Текущее время: Сегодня 20:05

Часовой пояс: GMT



Вы не можете начинать темы
Вы не можете отвечать на сообщения
Вы не можете редактировать свои сообщения
Вы не можете удалять свои сообщения
Вы не можете голосовать в опросах
Вы не можете прикреплять файлы к сообщениям
Вы не можете скачивать файлы