13 часов: Тайные солдаты Бенгази / 13 Hours: The Secret Soldiers of Benghazi (2016) BDRemux 1080p от ExKinoRay | Лицензия

 
Автор Сообщение

Russian Mafia ®

Пол:

Стаж: 1 год 8 месяцев

Сообщений: 4246



Награды: 10 (Подробнее)

За внесенный вклад в развитие сайта (Количество: 1) Top Releaser 3 (Количество: 1) Top Releaser 5 (Количество: 1)
Торрент-статистика

Создавать темы 03-Июн-2016 15:37

[Цитировать]

Информация о фильме
Название: 13 часов: Тайные солдаты Бенгази
Оригинальное название: 13 Hours: The Secret Soldiers of Benghazi
Год выхода: 2016
Жанр: Боевик, триллер, драма, военный
Режиссер: Майкл Бэй
В ролях: Джон Красински, Джеймс Бэдж Дэйл, Пабло Шрайбер, Дэвид Денман, Доминик Фумуса, Макс Мартини, Алексия Бальер, Дэвид Костабайл, Пейман Моаади, Мэтт Летчер
О фильме:
2012 год. Бенгази, Ливия. Группа террористов решает «отпраздновать» события 11 сентября нападением на американское посольство. Шестерке бойцов из элитного спецотряда приказано вмешаться только в крайнем случае. Но когда под угрозой десятки жизней, долг и совесть берут верх над субординацией. И мужественные солдаты без колебаний вступают в бой с яростной группировкой боевиков. Бой, который для всех шестерых, скорее всего, станет последним.

Страна: США
Студия: 3 Arts Entertainment, Dune Films, Latina Pictures
Продолжительность: 02:24:49
Перевод: Дублированный | Лицензия
Файл
Кодек: MPEG-4
Качество: BDRemux 1080p
Видео: 1920x1080, 26.6 Mbit/s, 23.976 fps
Звук:
Аудио #01: 48 kHz, DTS, 5.1, 1536 Kbps | Дублированный, Лицензия |DTS
Аудио #02: 48 kHz, TrueHD, 5.1, 4641 kbps | Оригинал |TrueHD
Субтитры: Русские (forced), английские

MI

General
Unique ID : 198727703101997285130034027957225946011 (0x9581903C2F3E55129C72B84A54CA7B9B)
Complete name : F:Video1313.Hours.The.Secret.Soldiers.of.Benghazi..2016..BDREMUX.1080p.ExKinoRay.mkv
Format : Matroska
Format version : Version 4 / Version 2
File size : 33.1 GiB
Duration : 2h 24mn
Overall bit rate mode : Variable
Overall bit rate : 32.8 Mbps
Movie name : 13.Hours.The.Secret.Soldiers.of.Benghazi.2016.BDREMUX.1080p.ExKinoRay
Encoded date : UTC 2016-06-03 14:50:15
Writing application : mkvmerge v8.3.0 ('Over the Horizon') 64bit
Writing library : libebml v1.3.1 + libmatroska v1.4.2
Video
ID : 1
Format : AVC
Format/Info : Advanced Video Codec
Format profile : High@L4.1
Format settings, CABAC : Yes
Format settings, ReFrames : 4 frames
Codec ID : V_MPEG4/ISO/AVC
Duration : 2h 24mn
Bit rate mode : Variable
Bit rate : 26.6 Mbps
Maximum bit rate : 29.0 Mbps
Width : 1 920 pixels
Height : 1 080 pixels
Display aspect ratio : 16:9
Frame rate mode : Constant
Frame rate : 23.976 (24000/1001) fps
Color space : YUV
Chroma subsampling : 4:2:0
Bit depth : 8 bits
Scan type : Progressive
Bits/(Pixel*Frame) : 0.534
Stream size : 26.8 GiB (81%)
Title : 13.Hours.The.Secret.Soldiers.of.Benghazi.2016.BDREMUX.1080p.ExKinoRay.***селезень***
Language : English
Default : Yes
Forced : No
Audio #1
ID : 2
Format : DTS
Format/Info : Digital Theater Systems
Mode : 16
Format settings, Endianness : Big
Codec ID : A_DTS
Duration : 2h 24mn
Bit rate mode : Constant
Bit rate : 1 536 Kbps
Channel(s) : 6 channels
Channel positions : Front: L C R, Side: L R, LFE
Sampling rate : 48.0 KHz
Frame rate : 93.750 fps (512 spf)
Bit depth : 16 bits
Compression mode : Lossy
Stream size : 1.55 GiB (5%)
Title : DUB [License]
Language : Russian
Default : Yes
Forced : No
Audio #2
ID : 3
Format : Atmos / TrueHD
Codec ID : A_TRUEHD
Duration : 2h 24mn
Bit rate mode : Variable
Bit rate : 4 641 Kbps
Maximum bit rate : 7 500 Kbps
Channel(s) : Object Based / 8 channels
Channel positions : Object Based / Front: L C R, Side: L R, Back: L R, LFE
Sampling rate : / 48.0 KHz
Frame rate : 1 200.000 fps (40 spf)
Compression mode : Lossless
Stream size : 4.68 GiB (14%)
Title : Original
Language : English
Default : No
Forced : No
Text #1
ID : 4
Format : UTF-8
Codec ID : S_TEXT/UTF8
Codec ID/Info : UTF-8 Plain Text
Duration : 2h 16mn
Bit rate : 4 bps
Count of elements : 59
Stream size : 4.24 KiB (0%)
Title : forced
Language : Russian
Default : Yes
Forced : No
Text #2
ID : 5
Format : UTF-8
Codec ID : S_TEXT/UTF8
Codec ID/Info : UTF-8 Plain Text
Duration : 2h 14mn
Bit rate : 67 bps
Count of elements : 2095
Stream size : 66.5 KiB (0%)
Language : English
Default : No
Forced : No
Text #3
ID : 6
Format : UTF-8
Codec ID : S_TEXT/UTF8
Codec ID/Info : UTF-8 Plain Text
Duration : 2h 15mn
Bit rate : 71 bps
Count of elements : 2274
Stream size : 70.7 KiB (0%)
Title : SDH
Language : English
Default : No
Forced : No
Menu
00:00:00.000 : en:Chapter 01
00:04:47.662 : en:Chapter 02
00:09:01.541 : en:Chapter 03
00:15:31.556 : en:Chapter 04
00:21:12.229 : en:Chapter 05
00:26:48.774 : en:Chapter 06
00:31:22.756 : en:Chapter 07
00:34:20.058 : en:Chapter 08
00:39:36.124 : en:Chapter 09
00:47:12.872 : en:Chapter 10
00:53:59.027 : en:Chapter 11
01:02:27.744 : en:Chapter 12
01:10:03.324 : en:Chapter 13
01:23:02.477 : en:Chapter 14
01:27:11.101 : en:Chapter 15
01:34:50.685 : en:Chapter 16
01:42:36.359 : en:Chapter 17
01:48:08.148 : en:Chapter 18
01:53:47.279 : en:Chapter 19
02:00:22.882 : en:Chapter 20
02:07:19.465 : en:Chapter 21
02:18:25.422 : en:Chapter 22

Скриншоты

[Профиль] [ЛС]
Кто просматривает тему:

Показать сообщения:    

Текущее время: Сегодня 11:49

Часовой пояс: GMT



Вы не можете начинать темы
Вы не можете отвечать на сообщения
Вы не можете редактировать свои сообщения
Вы не можете удалять свои сообщения
Вы не можете голосовать в опросах
Вы не можете прикреплять файлы к сообщениям
Вы не можете скачивать файлы