[iPad] 13-й район: Кирпичные особняки / Brick Mansions (Камиль Деламарр / Camille Delamarre ) [2014, Франция, Канада, Боевик, криминал, BDRip, SD (576p)] DUB + Original + sub (eng)

 
Автор Сообщение

sergej644 ®

Пол:

Стаж: 4 года 11 месяцев

Сообщений: 6046

Откуда: Soviet Union



Награды: Нет

Торрент-статистика

Создавать темы 17-Авг-2014 09:44

[Цитировать]


13-й район: Кирпичные особняки / Brick Mansions
«Undercover and never Outgunned»
5.514 / 10 5.80 / 10
-Год выпуска: 2014
Страна: Франция, Канада
Жанр: Боевик, криминал
Продолжительность: 01:30:10
Перевод: Дублированный (Line)
Оригинальная аудиодорожка: Есть
Cубтитры: Английские
Режиссёр: Камиль Деламарр
Сценарий: Люк Бессон, Биби Насери
Продюсер: Люк Бессон, Клод Леже, Джонатан Вэнджер
Оператор: Кристоф Коллетт
Композитор: Марк Бель, Тревор Моррис
Художник: Жан-Андре Каррьере, Юлия Паткош, Луиса Шаба
Монтаж: Карло Риццо, Артур Тарновски
В ролях: Пол Уокер, Давид Белль, RZA, Гучи Бой, Каталина Денис, Аиша Исса, Карло Рота, Андреас Апергис, Ричард Земан, Роберт Мэйллет
Бюджет: $28 000 000
Сборы в США: $20 396 829
Сборы в мире: + $11 800 000 = $32 196 829
Сборы в России: $3 324 855
Мировая премьера: 23 апреля 2014
Премьера (РФ): 8 мая 2014, «Наше Кино», «A-One Films»
Описание: История детектива под прикрытием, ищущего оружие массового уничтожения, похищенное наркодилером гетто Кирпичные дома. Детектив обращается за помощью к знатоку района Лино, единственному человеку, который не боится бандитов.-Качество исходника: BDRemux
Качество: BDRip
Тип: SD (576p)
Контейнер: M4V
Видео: H.264, 1024x432, 2.40:1, 2 200 Kbps, 23.976 fps
Аудио 1: Русский/Дублированный (Line), AAC / 2.0 / 154 Kbps / 48.0 KHz
Аудио 2: Английский/Оригинальная дорожка , AAC / 2.0 / 132 Kbps / 48.0 KHz
Субтитры: Английские полные
-

iTunes Meta Tags

Media Type: Movie
Sort Name: Brick Mansions
XID: Apple:vendor_id:2014-462667
Content ID: 906532836
Copyright: © 2014 V V S Films
ScreenWriters: Люк Бессон, Биби Насери
Producers: Люк Бессон, Клод Леже, Джонатан Вэнджер
Director: Камиль Деламарр
Cast: Пол Уокер, Давид Белль, RZA, Гучи Бой, Каталина Денис, Аиша Исса, Карло Рота, Андреас Апергис, Ричард Земан, Роберт Мэйллет
Rating: PG-13
Long Description: История детектива под прикрытием, ищущего оружие массового уничтожения, похищенное наркодилером гетто Кирпичные дома. Детектив обращается за помощью к знатоку района Лино, единственному человеку, который не боится бандитов.
Description: История детектива под прикрытием, ищущего оружие массового уничтожения, похищенное наркодилером гетто Кирпичные дома.
Release Date: 2014-04-23T08:00:00Z
Genre: Action & Adventure
Artist: Camille Delamarre
Name: Brick Mansions

MediaInfo

General
Complete name                            : C:\\Handbrake\\Brick.mansions.(SD).(pk).m4v
Format                                   : MPEG-4
Codec ID                                 : M4V
File size                                : 1.57 GiB
Duration                                 : 1h 30mn
Overall bit rate mode                    : Variable
Overall bit rate                         : 2 491 Kbps
Movie name                               : Brick Mansions
Performer                                : Camille Delamarre
Genre                                    : Action & Adventure
ContentType                              : Short Film
Description                              : История детектива под прикрытием, ищущего оружие массового уничтожения, похищенное наркодилером гетто Кирпичные дома.
Recorded date                            :  2014-04-23T08:00:00Z
Encoded date                             : UTC 2014-08-17 09:01:46
Tagged date                              : UTC 2014-08-17 09:02:32
Writing application                      : MkvToMp4 [www.mkvtomp4.ru] version 0.222
Copyright                                : © 2014 V V S Films
Service name                             : AOL
Cover                                    : Yes
Title/Sort                               : Brick Mansions
LongDescription                          : История детектива под прикрытием, ищущего оружие массового уничтожения, похищенное наркодилером гетто Кирпичные дома. Детектив обращается за помощью к знатоку района Лино, единственному человеку, который не боится бандитов.
AppleStoreAccountType                    : AOL
AppleStoreCountry                        : Unknown Country
AppleStoreCatalogID                      : 906532836
Vendor                                   : Apple:vendor_id:2014-462667
ContentRating                            : mpaa|PG-13|300|
iTunMOVI                                 :  /  /  /   /   cast /    /     /     name /     Пол Уокер /     /     /     name /     Давид Белль /     /     /     name /     RZA /     /     /     name /     Гучи Бой /     /     /     name /     Каталина Денис /     /     /     name /     Аиша Исса /     /     /     name /     Карло Рота /     /     /     name /     Андреас Апергис /     /     /     name /     Ричард Земан /     /     /     name /     Роберт Мэйллет /     /    /   directors /    /     /     name /     Камиль Деламарр /     /    /   producers /    /     /     name /     Люк Бессон /     /     /     name /     Клод Леже /     /     /     name /     Джонатан Вэнджер /     /    /   screenwriters /    /     /     name /     Люк Бессон /     /     /     name /     Биби Насери /     /    /   /
Video
ID                                       : 1
Format                                   : AVC
Format/Info                              : Advanced Video Codec
Format profile                           : High@L3.1
Format settings, CABAC                   : Yes
Format settings, ReFrames                : 9 frames
Codec ID                                 : avc1
Codec ID/Info                            : Advanced Video Coding
Duration                                 : 1h 30mn
Bit rate                                 : 2 200 Kbps
Maximum bit rate                         : 23.8 Mbps
Width                                    : 1 024 pixels
Height                                   : 432 pixels
Display aspect ratio                     : 2.40:1
Frame rate mode                          : Variable
Frame rate                               : 23.976 fps
Minimum frame rate                       : 23.810 fps
Maximum frame rate                       : 24.319 fps
Color space                              : YUV
Chroma subsampling                       : 4:2:0
Bit depth                                : 8 bits
Scan type                                : Progressive
Bits/(Pixel*Frame)                       : 0.207
Stream size                              : 1.38 GiB (88%)
Writing library                          : x264 core 130 r2273 b3065e6
Encoding settings                        : cabac=1 / ref=9 / deblock=1:0:0 / analyse=0x3:0x113 / me=umh / subme=9 / psy=1 / psy_rd=1.00:0.00 / mixed_ref=1 / me_range=32 / chroma_me=1 / trellis=1 / 8x8dct=1 / cqm=0 / deadzone=21,11 / fast_pskip=1 / chroma_qp_offset=-2 / threads=12 / lookahead_threads=1 / sliced_threads=0 / nr=0 / decimate=1 / interlaced=0 / bluray_compat=0 / constrained_intra=0 / bframes=6 / b_pyramid=2 / b_adapt=2 / b_bias=0 / direct=1 / weightb=1 / open_gop=0 / weightp=2 / keyint=240 / keyint_min=24 / scenecut=40 / intra_refresh=0 / rc_lookahead=40 / rc=2pass / mbtree=1 / bitrate=2200 / ratetol=1.0 / qcomp=0.60 / qpmin=0 / qpmax=69 / qpstep=4 / cplxblur=20.0 / qblur=0.5 / ip_ratio=1.40 / aq=1:1.00
Language                                 : English
Encoded date                             : UTC 2014-08-17 09:01:46
Tagged date                              : UTC 2014-08-17 09:02:04
Color primaries                          : BT.709
Transfer characteristics                 : BT.709
Matrix coefficients                      : BT.709
Audio #1
ID                                       : 2
Format                                   : AAC
Format/Info                              : Advanced Audio Codec
Format profile                           : LC
Codec ID                                 : 40
Duration                                 : 1h 30mn
Bit rate mode                            : Variable
Bit rate                                 : 154 Kbps
Maximum bit rate                         : 207 Kbps
Channel(s)                               : 2 channels
Channel positions                        : Front: L R
Sampling rate                            : 48.0 KHz
Compression mode                         : Lossy
Stream size                              : 99.2 MiB (6%)
Language                                 : Russian
Encoded date                             : UTC 2014-08-17 09:02:01
Tagged date                              : UTC 2014-08-17 09:02:04
Audio #2
ID                                       : 3
Format                                   : AAC
Format/Info                              : Advanced Audio Codec
Format profile                           : LC
Codec ID                                 : 40
Duration                                 : 1h 30mn
Bit rate mode                            : Variable
Bit rate                                 : 132 Kbps
Maximum bit rate                         : 183 Kbps
Channel(s)                               : 2 channels
Channel positions                        : Front: L R
Sampling rate                            : 48.0 KHz
Compression mode                         : Lossy
Stream size                              : 85.4 MiB (5%)
Language                                 : English
Encoded date                             : UTC 2014-08-17 09:02:03
Tagged date                              : UTC 2014-08-17 09:02:04
Text
ID                                       : 4
Format                                   : Timed Text
Muxing mode                              : sbtl
Codec ID                                 : tx3g
Duration                                 : 1h 24mn
Bit rate mode                            : Variable
Bit rate                                 : 52 bps
Stream size                              : 32.4 KiB (0%)
Language                                 : English
Encoded date                             : UTC 2014-08-17 09:02:04
Tagged date                              : UTC 2014-08-17 09:02:04
Menu
ID                                       : 5
Codec ID                                 : text
Duration                                 : 1h 30mn
Encoded date                             : UTC 2014-08-17 09:02:28
Tagged date                              : UTC 2014-08-17 09:02:28
Bit rate mode                            : VBR

x264 лог

x264 [info]: frame I:2305  Avg QP:14.90  size: 65298  PSNR Mean Y:48.54 U:50.79 V:51.45 Avg:49.23 Global:48.80
x264 [info]: frame P:39520 Avg QP:18.31  size: 19277  PSNR Mean Y:46.51 U:49.44 V:50.01 Avg:47.29 Global:46.57
x264 [info]: frame B:87887 Avg QP:20.28  size:  6534  PSNR Mean Y:45.69 U:49.13 V:49.67 Avg:46.52 Global:45.73
x264 [info]: consecutive B-frames:  8.9%  8.2% 18.2% 23.7% 16.3% 19.6%  5.1%
x264 [info]: mb I  I16..4: 12.4% 61.2% 26.4%
x264 [info]: mb P  I16..4:  4.1% 17.3%  4.8%  P16..4: 33.2% 19.2% 10.5%  0.0%  0.0%    skip:11.0%
x264 [info]: mb B  I16..4:  0.5%  1.8%  0.7%  B16..8: 37.5% 10.0%  2.8%  direct: 5.6%  skip:41.1%  L0:43.2% L1:45.7% BI:11.2%
x264 [info]: 8x8 transform intra:64.6% inter:70.7%
x264 [info]: coded y,uvDC,uvAC intra: 77.5% 79.8% 50.4% inter: 26.3% 29.5% 3.5%
x264 [info]: i16 v,h,dc,p: 34% 18%  7% 41%
x264 [info]: i8 v,h,dc,ddl,ddr,vr,hd,vl,hu: 11% 11%  5%  9% 13% 13% 13% 12% 13%
x264 [info]: i4 v,h,dc,ddl,ddr,vr,hd,vl,hu: 11% 14%  4%  8% 13% 13% 14% 10% 13%
x264 [info]: i8c dc,h,v,p: 39% 27% 20% 14%
x264 [info]: Weighted P-Frames: Y:3.2% UV:1.4%
x264 [info]: ref P L0: 56.3% 14.1% 12.6%  5.5%  3.6%  2.8%  2.1%  1.4%  1.2%  0.4%  0.0%
x264 [info]: ref B L0: 78.2% 10.1%  5.1%  2.5%  1.7%  1.3%  0.9%  0.3%
x264 [info]: ref B L1: 92.8%  7.2%
x264 [info]: SSIM Mean Y:0.9875232 (19.039db)
x264 [info]: PSNR Mean Y:45.991 U:49.250 V:49.801 Avg:46.806 Global:46.013 kb/s:2198.23

Скриншоты

-

Релиз подготовлен для просмотра на Apple TV, iPad, iPhone, iPod Touch.
Для просмотра данного релиза на компьютере с ОС Windows рекомендуется использовать VLC media player
[Профиль] [ЛС]
Кто просматривает тему:

Показать сообщения:    

Текущее время: Сегодня 13:48

Часовой пояс: GMT



Вы не можете начинать темы
Вы не можете отвечать на сообщения
Вы не можете редактировать свои сообщения
Вы не можете удалять свои сообщения
Вы не можете голосовать в опросах
Вы не можете прикреплять файлы к сообщениям
Вы не можете скачивать файлы