13 грехов / 13 Sins (Даниэль Штамм / Daniel Stamm) [2014, США, триллер, ужасы, HDRip-AVC] VO + Eng

 
Автор Сообщение

Создавать темы 13-Июл-2014 16:36

13 грехов
13 Sins
«Играешь не ты, играют тобой»


Страна: США
Студия: Automatik Entertainment, IM Global, Little Magic Films
Жанр: триллер, ужасы
Год выпуска: 2014
Продолжительность: 01:32:32
Перевод: Одноголосый закадровый [R.A.I.M.] - перевод на русский язык [lumez]
Cубтитры: Russian [lumez], English
Оригинальная аудиодорожка: English
Режиссер:
Даниэль Штамм / Daniel Stamm
В ролях:
Марк Веббер, Рутина Уэсли, Девон Грайе, Прюитт Тэйлор Винс, Том Бауэр, Рон Перлман, Клайд Джонс, Денин Тайлер, Tom S. Lawson Jr., Sharon Smith...
Описание:
Элиот Бриндл — умный кроткий сотрудник службы социального обеспечения, тонущий в долгах. Но все меняется, когда раздается телефонный звонок. Ему сообщают, что он становится участником тв-шоу, условия простые — выполнить 13 заданий, какими бы странными они не были; приз — деньги, которые копятся с каждым выполненным заданием. Эллиот следует первым инструкциям и с легкостью съедает пойманную муху. Вскоре Эллиот хочет, но не может прекратить игру, хотя задачи становятся более опасными, а точка невозврата скоро будет пройдена.

Релиз:
Автор рипа: Stalker oK
Сэмпл: multi-up
Качество видео: HDRip-AVC [BDRip 1080p HDAccess]
Формат видео: MKV
Видео кодек: AVC
Аудио кодек: AC3
Видео: 1863 Кбит/сек, 960*402 (2,35:1), в 23,976 кадр/сек, AVC
Аудио #1: Russian, 192 Кбит/сек, 48,0 КГц, 16 бит, 2 канала(ов), AC-3
Аудио #2: English, 192 Кбит/сек, 48,0 КГц, 16 бит, 2 канала(ов), AC-3

MediaInfo

Общее
Уникальный идентификатор : 218821742355017549830121957565621924606 (0xA49F88DC197837AFBA08BB768CE8F2FE)
Полное имя : E:\рипы\13.Sins.2014.HDRip-AVC.VO...stalkerok.new-team.mkv
Формат : Matroska
Размер файла : 1,45 Гбайт
Продолжительность : 1 ч. 32 м.
Общий поток : 2249 Кбит/сек
Название фильма : 13 Sins (2014) (New-Team) (Rip by Stalker oK)
Дата кодирования : UTC 2014-06-21 11:26:48
Программа кодирования : mkvmerge v6.1.0 ('Old Devil') built on Mar 4 2013 09:10:42
Библиотека кодирования : libebml v1.3.0 + libmatroska v1.4.0
Видео
Идентификатор : 1
Формат : AVC
Формат/Информация : Advanced Video Codec
Профиль формата : High@L4.1
Параметр CABAC формата : Да
Параметр ReFrames формата : 12 кадры
Идентификатор кодека : V_MPEG4/ISO/AVC
Продолжительность : 1 ч. 32 м.
Битрейт : 1863 Кбит/сек
Ширина : 960 пикс.
Высота : 402 пикс.
Соотношение сторон : 2,35:1
Частота кадров : 23,976 кадр/сек
Цветовое пространство : YUV
Подвыборка цветности : 4:2:0
Битовая глубина : 8 бит
Тип развёртки : Прогрессивная
Бит/(Пиксели*Кадры) : 0.201
Размер потока : 1,18 Гбайт (81%)
Библиотека кодирования : x264 core 138 r2358 9e941d1
Настройки программы : cabac=1 / ref=12 / deblock=1:-2:-2 / analyse=0x3:0x133 / me=umh / subme=11 / psy=1 / psy_rd=1.03:0.08 / mixed_ref=1 / me_range=48 / chroma_me=1 / trellis=2 / 8x8dct=1 / cqm=0 / deadzone=21,11 / fast_pskip=0 / chroma_qp_offset=-3 / threads=12 / lookahead_threads=3 / sliced_threads=0 / nr=0 / decimate=0 / interlaced=0 / bluray_compat=0 / constrained_intra=0 / bframes=12 / b_pyramid=2 / b_adapt=2 / b_bias=0 / direct=3 / weightb=1 / open_gop=0 / weightp=2 / keyint=240 / keyint_min=23 / scenecut=40 / intra_refresh=0 / rc_lookahead=80 / rc=2pass / mbtree=1 / bitrate=1863 / ratetol=1.0 / qcomp=0.65 / qpmin=0 / qpmax=69 / qpstep=4 / cplxblur=20.0 / qblur=0.5 / vbv_maxrate=20000 / vbv_bufsize=25000 / nal_hrd=none / ip_ratio=1.40 / aq=2:1.00
Аудио #1
Идентификатор : 2
Формат : AC-3
Формат/Информация : Audio Coding 3
Расширение режима : CM (complete main)
Идентификатор кодека : A_AC3
Продолжительность : 1 ч. 32 м.
Вид битрейта : Постоянный
Битрейт : 192 Кбит/сек
Канал(ы) : 2 канала(ов)
Расположение каналов : Front: L R
Частота : 48,0 КГц
Битовая глубина : 16 бит
Метод сжатия : С потерями
Размер потока : 127 Мбайт (9%)
Заголовок : R.A.I.M.
Язык : Russian
Аудио #2
Идентификатор : 3
Формат : AC-3
Формат/Информация : Audio Coding 3
Расширение режима : CM (complete main)
Идентификатор кодека : A_AC3
Продолжительность : 1 ч. 32 м.
Вид битрейта : Постоянный
Битрейт : 192 Кбит/сек
Канал(ы) : 2 канала(ов)
Расположение каналов : Front: L R
Частота : 48,0 КГц
Битовая глубина : 16 бит
Метод сжатия : С потерями
Размер потока : 127 Мбайт (9%)
Язык : English
Текст #1
Идентификатор : 4
Формат : UTF-8
Идентификатор кодека : S_TEXT/UTF8
Идентификатор кодека/Информация : UTF-8 Plain Text
Заголовок : lumez
Язык : Russian
Текст #2
Идентификатор : 5
Формат : UTF-8
Идентификатор кодека : S_TEXT/UTF8
Идентификатор кодека/Информация : UTF-8 Plain Text
Язык : English
Меню
00:00:00.000 : en:Chapter 01
00:05:10.602 : en:Chapter 02
00:10:52.610 : en:Chapter 03
00:16:12.972 : en:Chapter 04
00:23:14.685 : en:Chapter 05
00:28:38.926 : en:Chapter 06
00:35:55.528 : en:Chapter 07
00:40:40.897 : en:Chapter 08
00:48:50.177 : en:Chapter 09
00:56:12.077 : en:Chapter 10
01:03:46.823 : en:Chapter 11
01:11:24.447 : en:Chapter 12
01:15:58.262 : en:Chapter 13
01:22:09.716 : en:Chapter 14
01:28:21.296 : en:Chapter 15

Скриншоты

 
Кто просматривает тему:

Показать сообщения:    

Текущее время: Сегодня 02:44

Часовой пояс: GMT



Вы не можете начинать темы
Вы не можете отвечать на сообщения
Вы не можете редактировать свои сообщения
Вы не можете удалять свои сообщения
Вы не можете голосовать в опросах
Вы не можете прикреплять файлы к сообщениям
Вы не можете скачивать файлы