Семьяниң (2019) DVB

 
Author Message

BOSS ®

Gender:

Longevity: 5 years 4 months

Posts: 14253

Location: ODESSA



: 22 ()

Top Keeper 1 (1) Mega Seeder 4 (1) Mega Seeder 1 (1)
Торрент-статистика

Post 12-Sep-2019 19:39

[Quote]

Семьяниң Год выпуска: 2019
Страна: Казахстан
Жанр: комедия
Продолжительность: 01:11:52
Перевод: не требуется
Субтитры: казахские (вшитые)-Режиссёр: Фархат Кулбаев
В ролях: Асель Садвакасова, Абунасыр Сериков, Кайрат Адилгерей, Марйам Сатаева-О фильме: Жизнь Мухтара подходит к «кризису среднего возраста». Все, что он имеет на данный момент, это дом, работу, семью и несколько кредитов. Мухтар искренне верит, что мог бы прожить более достойную и лучшую жизнь, если бы не ранняя женитьба. Однажды судьба преподносит Мухтару подарок и он просыпается в шикарных апартаментах, богатым бизнесменом у которого есть все, о чем можно мечтать. Но платой за это становится его собственная семья, которой теперь у него нет. Сможет ли Мухтар осознать настоящие ценности и вернуть обратно семью, если их мужем и отцом теперь является его лучший и единственный друг?-
Семпл: https://www.sendspace.com/file/z4x205-Качество: DVB [КТК] (эфир 30.08.2019)
Формат: TS
Видео: AVC, 720x576 @ 1047x576 (16:9), 25 fps, ~1849 kbps, 0.178 bit/pixel
Аудио: [RUS] 48 kHz, MP2, 2 ch, 192 kbps

Mediainfo

General
ID : 1 (0x1)
Complete name : H:РаздачиСемьянин (2019) [DVB].ts
Format : MPEG-TS
File size : 1.08 GiB
Duration : 1 h 11 min
Overall bit rate mode : Variable
Overall bit rate : 2 150 kb/s
Video
ID : 68 (0x44)
Menu ID : 1 (0x1)
Format : AVC
Format/Info : Advanced Video Codec
Format profile : High@L3
Format settings : CABAC / 3 Ref Frames
Format settings, CABAC : Yes
Format settings, Reference : 3 frames
Format settings, GOP : M=4, N=24
Codec ID : 27
Duration : 1 h 11 min
Bit rate : 1 849 kb/s
Width : 720 pixels
Height : 576 pixels
Display aspect ratio : 16:9
Frame rate : 25.000 FPS
Standard : Component
Color space : YUV
Chroma subsampling : 4:2:0
Bit depth : 8 bits
Scan type : Interlaced
Scan type, store method : Separated fields
Scan order : Top Field First
Bits/(Pixel*Frame) : 0.178
Stream size : 951 MiB (86%)
Color range : Limited
Color primaries : BT.601 PAL
Transfer characteristics : BT.470 System B/G
Matrix coefficients : BT.470 System B/G
Audio
ID : 69 (0x45)
Menu ID : 1 (0x1)
Format : MPEG Audio
Format version : Version 1
Format profile : Layer 2
Codec ID : 3
Duration : 1 h 11 min
Bit rate mode : Constant
Bit rate : 192 kb/s
Channel(s) : 1 channel
Sampling rate : 48.0 kHz
Frame rate : 41.667 FPS (1152 SPF)
Compression mode : Lossy
Delay relative to video : -120 ms
Stream size : 98.7 MiB (9%)
Language : English

Скриншоты

[Profile] [PM]
Display posts from previous:    

The time now is: Today 23:15

All times are GMT



You cannot post new topics in this forum
You cannot reply to topics in this forum
You cannot edit your posts in this forum
You cannot delete your posts in this forum
You cannot vote in polls in this forum
You cannot attach files in this forum
You cannot download files in this forum