128 ударов сердца в минуту / We Are Your Friends (2015) WEBRip 1080p | Трейлер

 
Автор Сообщение

BOSS ®

Пол:

Стаж: 2 года 1 месяц

Сообщений: 3735

Откуда: ODESSA



Награды: 20 (Подробнее)

Mega Releaser 2 (Количество: 1) Mega Seeder 4 (Количество: 1) Top Keeper 1 (Количество: 1)
Торрент-статистика

Создавать темы 16-Июн-2015 10:47

[Цитировать]

Год выпуска: 2015
Производство: США
Жанр: драма, музыка
Перевод: Дублированный
Режиссер: Макс Джозеф
Продюсеры: Тим Беван, Эрик Феллнер, Нэйтан Келли
Актеры: Эмили Ратажковски, Зак Эфрон, Диана Принц, Джонни Уэстон, Джон Бернтал, Уэс Бентли, Шайло Фернандес, Ванесса Ленгиз, Алисия Коппола, Джон Абрахамс
Описание фильма:
Действие фильма разворачивается в Голливуде. Двадцатитрехлетний диджей по имени Коул проводит дни и ночи своей жизни в беспрестанной работе над одним треком, который должен будет взорвать весь мир. Всё это меняется, когда он знакомится с более опытным, хотя и не совсем здоровым диджеем Джеймсом, который берет парня под свое крыло. Вскоре Коул влюбляется в Софи, девушку Джеймса, и ему приходится выбирать между любовью, дружбой и своим будущим.
Дата мировой премьеры: 27 августа 2015
Дата российской премьеры: -

Продолжительность: 00:03:20
Качество видео: WEBRip
Видеокодек: MPEG-4 AVC/H.264
Битрейт видео: 7911 Кбит/сек
Размер кадра: 1920x1036
Аудиокодек: AAC
Битрейт аудио: 104 Кбит/сек

MediaInfo:

Общее
Полное имя : D:временные файлыWe-Are-Your-Friends.mp4
Формат : MPEG-4
Профиль формата : Base Media
Идентификатор кодека : isom
Размер файла : 192 Мбайт
Продолжительность : 3 м. 20 с.
Режим общего битрейта : Переменный
Общий поток : 8017 Кбит/сек
Дата кодирования : UTC 2015-06-11 09:04:19
Дата пометки : UTC 2015-06-11 09:04:19
Программа кодирования : Lavf51.12.1
Видео
Идентификатор : 1
Формат : AVC
Формат/Информация : Advanced Video Codec
Профиль формата : Baseline@L4
Параметр CABAC формата : Нет
Параметр ReFrames формата : 1 кадр
Параметр GOP формата : M=1, N=12
Идентификатор кодека : avc1
Идентификатор кодека/Информация : Advanced Video Coding
Продолжительность : 3 м. 20 с.
Битрейт : 7911 Кбит/сек
Ширина : 1920 пикселей
Высота : 1036 пикселей
Соотношение сторон : 1,85:1
Режим частоты кадров : Постоянный
Частота кадров : 23,976 кадра/сек
Цветовое пространство : YUV
Субдискретизация насыщенности : 4:2:0
Битовая глубина : 8 бит
Тип развёртки : Прогрессивная
Бит/(Пиксели*Кадры) : 0.166
Размер потока : 189 Мбайт (99%)
Дата кодирования : UTC 2015-06-11 09:04:19
Дата пометки : UTC 2015-06-11 09:04:19
Аудио
Идентификатор : 2
Формат : AAC
Формат/Информация : Advanced Audio Codec
Профиль формата : LC
Идентификатор кодека : 40
Продолжительность : 3 м. 20 с.
Вид битрейта : Переменный
Битрейт : 104 Кбит/сек
Каналы : 2 канала
Расположение каналов : Front: L R
Частота : 48,0 КГц
Метод сжатия : С потерями
Размер потока : 2,47 Мбайт (1%)
Дата кодирования : UTC 2015-06-11 09:04:19
Дата пометки : UTC 2015-06-11 09:04:19
Скриншоты - -

Скриншоты

[Профиль] [ЛС]
Показать сообщения:    

Текущее время: Сегодня 18:15

Часовой пояс: GMT



Вы не можете начинать темы
Вы не можете отвечать на сообщения
Вы не можете редактировать свои сообщения
Вы не можете удалять свои сообщения
Вы не можете голосовать в опросах
Вы не можете прикреплять файлы к сообщениям
Вы не можете скачивать файлы