127 Часов / 127 Hours (Дэнни Бойл / Danny Boyle) [2010, США, Великобритания, триллер, драма, приключения, биография, BDRip-AVC] Dub + 2x DVO (Кубик в кубе, OzzTV) + AVO (Сербин) + Original + Sub (Rus, Eng)

 
Автор Сообщение

TorrentFilm ®

Пол:

Стаж: 1 год 11 месяцев

Сообщений: 7741



Награды: Нет

Торрент-статистика

Создавать темы 23-Дек-2015 00:30

[Цитировать]

127 Часов / 127 HoursГод выпуска: 2010
Страна: США, Великобритания
Жанр: триллер, драма, приключения, биография
Продолжительность: 01:33:41
Перевод:
- профессиональный (полное дублирование)
- профессиональный (двухголосый закадровый, Кубик в кубе) отдельно
- профессиональный (двухголосый закадровый, OzzTV) отдельно
- авторский (одноголосый закадровый, Сербин) отдельно
Русские субтитры: есть
Режиссер: Дэнни Бойл / Danny Boyle
В ролях: Джеймс Франко, Кейт Мара, Эмбер Тэмблин, Шон Ботт, Колман Стингер, Трит Уильямс, Джон Лоуренс, Кейт Бёртон, Бэйли Мишель Джонсон, Ребекка С. Олсон
Описание: Неудержимый скалолаз и любитель спрятанных в каньонах пещер в очередной раз в одиночестве едет в горы и оказывается в смертельной ловушке. 127 часов без еды, без питья и практически без надежды выжить. Тут-то и проявляется сила характера
Рейтинг MPAA: -Доп. информация:
IMDb: 7.6/10
Kinopoisk: 7.694/10
Sample

Интересные факты о фильме

  • На главную роль в фильме претендовал Киллиан Мерфи.
  • Фильм снят по автобиографической книге молодого скалолаза-любителя Арона Ральстона, который в один из уикэндов 2003 года, не сказав никому не слова, отправился к любимому каньону. По роковой случайности он оступился и рухнул в расщелину.
  • Арона Ральстона мог сыграть Себастьян Стэн.
  • Кэти Фезерстон пробовалась на роль Кристи. Также в фильме могли сыграть Джена Мэлоун и Лейк Белл.
  • Арон Ральстон, действительно, вел видеодневник, пока находился в ущелье. Запись была показана только близким родственникам Ральстона. Перед съемками «127 часов» ее разрешено было посмотреть Дэнни Бойлу и Джеймсу Франко.

Награды и номинации

Жорж, 2012 год
Номинации (1):
* Лучшая зарубежная драма
Оскар, 2011 год
Номинации (6):
* Лучший фильм
* Лучшая мужская роль (Джеймс Франко)
* Лучший адаптированный сценарий
* Лучший монтаж
* Лучшая песня — «If I Rise»
* Лучший саундтрек
Золотой глобус, 2011 год
Номинации (3):
* Лучшая мужская роль (драма) (Джеймс Франко)
* Лучший сценарий
* Лучший саундтрек
Премия канала «MTV», 2011 год
Номинации (1):
* Самый безумный эпизод
Британская академия, 2011 год
Номинации (8):
* Лучшая мужская роль (Джеймс Франко)
* Лучший адаптированный сценарий
* Лучшая работа оператора (Энрике Чедьяк, Энтони Дод Мэнтл)
* Лучший звук
* Лучший монтаж
* Премия имени Энтони Эскуита за достижения в создании музыки к фильму
* Премия имени Дэвида Лина за достижения в режиссуре (Дэнни Бойл)
* Премия имени Александра Корды за самый выдающийся британский фильм года
Премия Гильдии актеров, 2011 год
Номинации (1):
* Лучшая мужская роль (Джеймс Франко)
Качество: BDRip-AVC
Формат: MKV
Видео: H.264, 1152x624 (1.85:1), 3553 kbps, 23.976 fps
Аудио 1: Russian, AC3, 6ch, 48 kHz, 448 kbps (Дубляж)
Аудио 2: English, AC3, 6ch, 48 kHz, 448 kbps (Оригинал)
Аудио 3: Russian, AC3, 6ch, 48 kHz, 448 kbps (Двухголосый, Кубик в кубе) - отдельным файлом
Аудио 4: Russian, AC3, 6ch, 48 kHz, 448 kbps (Двухголосый, OzzTV) - отдельным файлом
Аудио 5: Russian, AC3, 6ch, 48 kHz, 448 kbps (Одноголосый, Сербин) - отдельным файлом
Субтитры 1: Russian, SRT, R5
Субтитры 2: Russian, SRT, форсированные, Voronine
Субтитры 3: Russian, SRT, полные, Voronine
Субтитры 4: Russian, SRT, SDH, Voronine
Субтитры 5: English, SRT-

Сравнение с исходником

Rip

Source

MediaInfo

Format : Matroska
File size : 2.91 GiB
Duration : 1h 33mn
Overall bit rate : 4 451 Kbps
Movie name : 127 Hours (2010) BDRip
Encoded date : UTC 2011-04-10 22:06:30
Writing application : mkvmerge v4.4.0 ('Die Wiederkehr') built on Oct 31 2010 21:52:48
Writing library : libebml v1.0.0 + libmatroska v1.0.0
Cover : Yes
Video
ID : 1
Format : AVC
Format/Info : Advanced Video Codec
Format profile : High@L4.0
Format settings, CABAC : Yes
Format settings, ReFrames : 10 frames
Codec ID : V_MPEG4/ISO/AVC
Duration : 1h 33mn
Bit rate : 3 467 Kbps
Width : 1 152 pixels
Height : 624 pixels
Display aspect ratio : 16:9
Frame rate : 23.976 fps
Color space : YUV
Chroma subsampling : 4:2:0
Bit depth : 8 bits
Scan type : Progressive
Bits/(Pixel*Frame) : 0.201
Stream size : 2.27 GiB (78%)
Writing library : x264 core 114 r1924 08d04a4
Encoding settings : cabac=1 / ref=10 / deblock=1:-3:-2 / analyse=0x3:0x133 / me=umh / subme=10 / psy=1 / psy_rd=1.10:0.05 / mixed_ref=1 / me_range=32 / chroma_me=1 / trellis=2 / 8x8dct=1 / cqm=0 / deadzone=21,11 / fast_pskip=1 / chroma_qp_offset=-3 / threads=6 / sliced_threads=0 / nr=0 / decimate=1 / interlaced=0 / constrained_intra=0 / bframes=10 / b_pyramid=2 / b_adapt=2 / b_bias=0 / direct=1 / weightb=1 / open_gop=0 / weightp=2 / keyint=250 / keyint_min=23 / scenecut=40 / intra_refresh=0 / rc=crf / mbtree=0 / crf=19.9 / qcomp=0.60 / qpmin=0 / qpmax=69 / qpstep=4 / ip_ratio=1.40 / pb_ratio=1.20 / aq=1:0.85
Language : English
Matrix coefficients : BT.709-5, BT.1361, IEC 61966-2-4 709, SMPTE RP177
Audio #1
ID : 2
Format : AC-3
Format/Info : Audio Coding 3
Mode extension : CM (complete main)
Codec ID : A_AC3
Duration : 1h 33mn
Bit rate mode : Constant
Bit rate : 448 Kbps
Channel(s) : 6 channels
Channel positions : Front: L C R, Side: L R, LFE
Sampling rate : 48.0 KHz
Bit depth : 16 bits
Compression mode : Lossy
Stream size : 300 MiB (10%)
Title : Dub
Language : Russian
Audio #2
ID : 3
Format : AC-3
Format/Info : Audio Coding 3
Mode extension : CM (complete main)
Codec ID : A_AC3
Duration : 1h 33mn
Bit rate mode : Constant
Bit rate : 448 Kbps
Channel(s) : 6 channels
Channel positions : Front: L C R, Side: L R, LFE
Sampling rate : 48.0 KHz
Bit depth : 16 bits
Compression mode : Lossy
Stream size : 300 MiB (10%)
Title : Original
Language : English
Text #1
ID : 4
Format : UTF-8
Codec ID : S_TEXT/UTF8
Codec ID/Info : UTF-8 Plain Text
Title : Full (R5)
Language : Russian
Text #2
ID : 5
Format : UTF-8
Codec ID : S_TEXT/UTF8
Codec ID/Info : UTF-8 Plain Text
Title : Forced (Voronine)
Language : Russian
Text #3
ID : 6
Format : UTF-8
Codec ID : S_TEXT/UTF8
Codec ID/Info : UTF-8 Plain Text
Title : Full (Voronine)
Language : Russian
Text #4
ID : 7
Format : UTF-8
Codec ID : S_TEXT/UTF8
Codec ID/Info : UTF-8 Plain Text
Title : SDH (Voronine)
Language : Russian
Text #5
ID : 8
Format : UTF-8
Codec ID : S_TEXT/UTF8
Codec ID/Info : UTF-8 Plain Text
Language : English
Menu
00:00:00.000 : en:00:00:00.000
00:05:08.141 : en:00:05:08.141
00:07:55.975 : en:00:07:55.975
00:10:46.729 : en:00:10:46.729
00:14:42.924 : en:00:14:42.924
00:20:43.534 : en:00:20:43.534
00:25:02.209 : en:00:25:02.209
00:29:34.898 : en:00:29:34.898
00:32:16.434 : en:00:32:16.434
00:35:46.728 : en:00:35:46.728
00:40:12.368 : en:00:40:12.368
00:45:48.704 : en:00:45:48.704
00:48:48.968 : en:00:48:48.968
00:52:01.744 : en:00:52:01.744
00:56:05.988 : en:00:56:05.988
01:00:57.320 : en:01:00:57.320
01:03:19.629 : en:01:03:19.629
01:06:43.208 : en:01:06:43.208
01:10:24.262 : en:01:10:24.262
01:12:31.222 : en:01:12:31.222
01:15:33.237 : en:01:15:33.237
01:19:51.704 : en:01:19:51.704
01:23:28.545 : en:01:23:28.545
01:28:07.908 : en:01:28:07.908

x264 log

x264 [info]: frame I:980 Avg QP:18.04 size: 93802 PSNR Mean Y:45.80 U:48.80 V:49.02 Avg:46.57 Global:45.81
x264 [info]: frame P:29301 Avg QP:19.98 size: 33373 PSNR Mean Y:44.51 U:48.06 V:48.44 Avg:45.36 Global:44.04
x264 [info]: frame B:104503 Avg QP:22.09 size: 13655 PSNR Mean Y:43.27 U:47.37 V:47.83 Avg:44.24 Global:43.18
x264 [info]: consecutive B-frames: 2.8% 2.7% 5.6% 24.0% 15.5% 26.8% 7.6% 9.7% 3.0% 1.5% 0.8%
x264 [info]: mb I I16..4: 7.0% 82.9% 10.0%
x264 [info]: mb P I16..4: 1.6% 14.2% 1.2% P16..4: 46.5% 22.7% 4.8% 0.2% 0.2% skip: 8.6%
x264 [info]: mb B I16..4: 0.1% 1.2% 0.2% B16..8: 41.3% 10.5% 3.2% direct: 7.0% skip:36.5% L0:44.4% L1:47.8% BI: 7.9%
x264 [info]: 8x8 transform intra:82.8% inter:68.2%
x264 [info]: coded y,uvDC,uvAC intra: 87.3% 84.3% 59.8% inter: 29.3% 25.8% 5.6%
x264 [info]: i16 v,h,dc,p: 34% 12% 8% 45%
x264 [info]: i8 v,h,dc,ddl,ddr,vr,hd,vl,hu: 6% 7% 6% 11% 16% 14% 15% 11% 13%
x264 [info]: i4 v,h,dc,ddl,ddr,vr,hd,vl,hu: 7% 6% 3% 10% 18% 15% 16% 11% 14%
x264 [info]: i8c dc,h,v,p: 45% 21% 15% 19%
x264 [info]: Weighted P-Frames: Y:14.9% UV:9.3%
x264 [info]: ref P L0: 42.6% 10.8% 18.5% 6.9% 6.0% 4.2% 4.0% 2.3% 2.2% 2.0% 0.5% 0.1%
x264 [info]: ref B L0: 71.4% 12.1% 5.9% 3.3% 2.4% 2.1% 1.7% 0.8% 0.3%
x264 [info]: ref B L1: 92.6% 7.4%
x264 [info]: SSIM Mean Y:0.9681342 (14.967db)
x264 [info]: PSNR Mean Y:43.558 U:47.530 V:47.973 Avg:44.503 Global:43.370 kb/s:3553.13
encoded 134784 frames, 4.44 fps, 3553.13 kb/s

-

Скриншоты


-Релиз от группы -
[Профиль] [ЛС]

Создавать темы 12-Июн-2016 07:53 (спустя 5 месяцев 20 дней)

Топик был перенесен из форума Фильмы 2011 года в форум Фильмы 2010 года
Russian Mafia
 
Показать сообщения:    

Текущее время: Сегодня 04:58

Часовой пояс: GMT



Вы не можете начинать темы
Вы не можете отвечать на сообщения
Вы не можете редактировать свои сообщения
Вы не можете удалять свои сообщения
Вы не можете голосовать в опросах
Вы не можете прикреплять файлы к сообщениям
Вы не можете скачивать файлы