Подчинение / Submission (2017) BDRip | Jaskier

 
Author Message

BOSS ®

Gender:

Longevity: 4 years 10 months

Posts: 14162

Location: ODESSA



: 22 ()

Top Releaser 3 (1) Top Keeper 4 (1) Top Keeper 2 (1)
Торрент-статистика

Post 21-Mar-2019 19:46

[Quote]

Информация о фильме
Название: Подчинение
Оригинальное название: Submission
Год выпуска: 2017
Жанр: Драма
Режиссер: Ричард Ливайн / Richard Levine
В ролях: Стэнли Туччи, Эддисон Тимлин, Кира Седжвик, Джанин Гарофало, Ричи Костер, Колби Минифи, Элисон Бартлетт, Хуан Кастано, Дэвид Питту, Генри Страм
Описание: Тед Свенсон — писатель, прославившийся когда-то одним романом, теперь преподаёт в небольшом искусствоведческом колледже. Он вполне счастлив в браке, но жизнь не приносит ему радости: на званых ужинах он пьёт больше, чем нужно, не выбирает выражений при разговорах с коллегами и разочаровывается в бесталанных студентах. Единственная, кто выделяется на этом фоне — молодая и способная Анджела Арго.

Выпущено: США, Mighty Engine, Olive Productions, Ospringe Media Limited
Продолжительность: 01:46:24
Перевод: Профессиональный (многоголосый закадровый) | Jaskier | Ненормативная лексика
Файл
Качество: BDRip | BDRemux 1080p
Формат: AVI
Видео: 720x304 (2.37:1), 23.976 fps, XviD build 73 ~1567 kbps avg, 0.30 bit/pixel
Аудио: 48 kHz, AC3 Dolby Digital, 3/2 (L,C,R,l,r) + LFE ch, ~384 kbps
Субтитры: Нет

Скриншоты


MediaInfo

Формат                                   : AVI
Формат/Информация                        : Audio Video Interleave
Размер файла                             : 1,46 Гбайт
Продолжительность                        : 1 ч. 46 м.
Общий поток                              : 1960 Кбит/сек
Программа кодирования                    : VirtualDubMod 1.5.10.3
Библиотека кодирования                   : VirtualDubMod build 2550/release
Видео
Идентификатор                            : 0
Формат                                   : MPEG-4 Visual
Профиль формата                          : Advanced Simple@L5
Настройки формата                        : BVOP1 / Custom Matrix
Параметр BVOP формата                    : 1
Параметр QPel формата                    : Нет
Параметр GMC формата                     : Без точки перехода
Параметр матрицы формата                 : Выборочная
Идентификатор кодека                     : XVID
Идентификатор кодека/Подсказка           : XviD
Продолжительность                        : 1 ч. 46 м.
Битрейт                                  : 1567 Кбит/сек
Ширина                                   : 720 пикселей
Высота                                   : 304 пикселя
Соотношение сторон                       : 2,35:1
Частота кадров                           : 23,976 (24000/1001) кадра/сек
Цветовое пространство                    : YUV
Субдискретизация насыщенности            : 4:2:0
Битовая глубина                          : 8 бит
Тип развёртки                            : Прогрессивная
Метод сжатия                             : С потерями
Бит/(Пиксели*Кадры)                      : 0.299
Размер потока                            : 1,16 Гбайт (80%)
Библиотека кодирования                   : XviD 73
Аудио
Идентификатор                            : 1
Формат                                   : AC-3
Формат/Информация                        : Audio Coding 3
Коммерческое название                    : Dolby Digital
Идентификатор кодека                     : 2000
Продолжительность                        : 1 ч. 46 м.
Вид битрейта                             : Постоянный
Битрейт                                  : 384 Кбит/сек
Каналы                                   : 6 каналов
Channel layout                           : L R C LFE Ls Rs
Частота                                  : 48,0 КГц
Частота кадров                           : 31,250 кадров/сек (1536 SPF)
Битовая глубина                          : 16 бит
Метод сжатия                             : С потерями
Размер потока                            : 292 Мбайт (20%)
Выравнивание                             : Разделение по промежуткам
Продолжительность промежутка             : 42  мс. (1,00 видеокадр)
Время предзагрузки промежутка            : 500  мс.
[Profile] [PM]
Display posts from previous:    

The time now is: Today 16:07

All times are GMT



You cannot post new topics in this forum
You cannot reply to topics in this forum
You cannot edit your posts in this forum
You cannot delete your posts in this forum
You cannot vote in polls in this forum
You cannot attach files in this forum
You cannot download files in this forum