Зелёные бабочки / Mariposas verdes / Green butterflies (2017) HDRip | L1

 
Author Message

BOSS ®

Gender:

Longevity: 4 years 10 months

Posts: 14162

Location: ODESSA



: 22 ()

Top Releaser 3 (1) Mega Seeder 5 (1) Top Seeder 4 (1)
Торрент-статистика

Post 17-Mar-2019 17:51

[Quote]

Информация о фильме
Название: Зелёные бабочки
Оригинальное название: Mariposas verdes / Green butterflies
Год выхода: 2017
Жанр: драма, мелодрама, гей-тема
Режиссер: Густаво Ниэто Роа / Gustavo Nieto Roa
В ролях: Дейви Дуарте (Матео), Кевин Бюри (Даниэль), Андрес Кардона (Лукас), Виктория Ортис (Анхела), Хулиана Рендон (Лорена), Карен Новоа (Памела), Эдвард Гонзалес (Габриэль), Сесилия Суарес (директиса), Хулио Брачо (отец Матео), Мария Элена Доеринг (мать Матео), Консуэло Лузардо (бабушка Матео), Хуан Пабло Гамбоа (отец Даниэля), Линда Лусия Каллехас (мать Даниэля)
О фильме:
Главные герои фильма - старшеклассники частной школы. Они учатся, развлекаются, влюбляются. В закрытой школе царит довольно таки удушливая атмосфера. И дома у некоторых учеников обстановка не из приятных. Матео приходится выбирать между любовью к своему другу Даниэлю и к Лорене, отбиваться от нападок племянника директрисы Лукаса, защищать Анхелину, бороться с предрассудками родителей и недоброжелательной реакцией администрации школы. Но хватит ли у подростков сил и ума, чтобы без существенных потерь преодолеть превратности судьбы ?

Рекламы нет
Страна: Колумбия
Продолжительность: 01:41:57
Перевод: Любительский одноголосый закадровый (Анатолий Ашмарин)
Файл
Качество: HDRip
Формат: AVI
Видео: XviD; 768 x 416 (1,85:1); 29,970 кадров/сек; 806 Кбит/сек
Аудио 1: MP3; 48 КГц; 128 Кбит/сек; 2 канала; L1 (Русский, Ашмарин)
Аудио 2: MP3; 48 КГц; 128 Кбит/сек; 2 канала; Оригинал (Испанский)
Семпл

MediaInfo:

Общее
Формат : AVI
Формат/Информация : Audio Video Interleave
Размер файла : 787 Мбайт
Продолжительность : 1 ч. 41 м.
Общий поток : 1080 Кбит/сек
Программа кодирования : VirtualDubModRus 1.5.10.2 (build 2542/release)
Библиотека кодирования : VirtualDubMod build 2542/release
Видео
Идентификатор : 0
Формат : MPEG-4 Visual
Профиль формата : Advanced Simple@L5
Настройки формата : BVOP2
Параметр BVOP формата : 2
Параметр QPel формата : Нет
Параметр GMC формата : Без точки перехода
Параметр матрицы формата : Default (H.263)
Идентификатор кодека : XVID
Идентификатор кодека/Подсказка : XviD
Продолжительность : 1 ч. 41 м.
Битрейт : 806 Кбит/сек
Ширина : 768 пикселей
Высота : 416 пикселей
Соотношение сторон : 1,85:1
Частота кадров : 29,970 (30000/1001) кадров/сек
Цветовое пространство : YUV
Субдискретизация насыщенности : 4:2:0
Битовая глубина : 8 бит
Тип развёртки : Прогрессивная
Метод сжатия : С потерями
Бит/(Пиксели*Кадры) : 0.084
Размер потока : 588 Мбайт (75%)
Библиотека кодирования : XviD 67
Аудио #1
Идентификатор : 1
Формат : MPEG Audio
Версия формата : Version 1
Профиль формата : Layer 3
Настройки формата : Joint stereo / MS Stereo
Идентификатор кодека : 55
Идентификатор кодека/Подсказка : MP3
Продолжительность : 1 ч. 41 м.
Вид битрейта : Постоянный
Битрейт : 128 Кбит/сек
Каналы : 2 канала
Частота : 48,0 КГц
Частота кадров : 41,667 кадра/сек (1152 SPF)
Метод сжатия : С потерями
Размер потока : 93,4 Мбайт (12%)
Выравнивание : Соединение по промежуткам
Продолжительность промежутка : 33 мс. (1,00 видеокадр)
Время предзагрузки промежутка : 504 мс.
Библиотека кодирования : LAME3.100
Настройки программы : -m j -V 4 -q 2 -lowpass 17 -b 128
Аудио #2
Идентификатор : 2
Формат : MPEG Audio
Версия формата : Version 1
Профиль формата : Layer 3
Настройки формата : Joint stereo
Идентификатор кодека : 55
Идентификатор кодека/Подсказка : MP3
Продолжительность : 1 ч. 41 м.
Вид битрейта : Постоянный
Битрейт : 128 Кбит/сек
Каналы : 2 канала
Частота : 48,0 КГц
Частота кадров : 41,667 кадра/сек (1152 SPF)
Метод сжатия : С потерями
Размер потока : 93,4 Мбайт (12%)
Выравнивание : Соединение по промежуткам
Продолжительность промежутка : 33 мс. (1,00 видеокадр)
Время предзагрузки промежутка : 504 мс.
Библиотека кодирования : LAME3.100
Настройки программы : -m j -V 4 -q 2 -lowpass 17 -b 128
[Profile] [PM]
Display posts from previous:    

The time now is: Today 21:56

All times are GMT



You cannot post new topics in this forum
You cannot reply to topics in this forum
You cannot edit your posts in this forum
You cannot delete your posts in this forum
You cannot vote in polls in this forum
You cannot attach files in this forum
You cannot download files in this forum