Дитя во времени / The Child in Time (2017) BDRip-AVC от OlLanDGroup | P

 
Author Message

Swager ®

Gender:

Longevity: 3 years 10 months

Posts: 2126



: 4 ()

Mega Seeder 2 (1) За внесенный вклад в развитие сайта (1) Mega Seeder 1 (1)
Торрент-статистика

Post 06-Feb-2019 16:55

[Quote]

Дитя во времени / The Child in Time
-

Год выпуска: 2017
Страна: Великобритания
Производство: BBC, Masterpiece, SunnyMarch, Twelve Town
Жанр: Драма-Режиссёр: Джулиан Фарино
В ролях: Бенедикт Камбербэтч, Келли Макдональд, Стивен Кэмпбелл Мур, Саския Ривз, Андреа Холл, Джим Крейтон, Беатрис Уайт, Роза-Мария Льюис, Фрэнсис Эшман, Анна Маделей, Джон Хопкинс, Эллиот Леви, Люси Лиманн, Наташа Браун, Лоуренс Спэллман, Ричард Дерден, Джеральдин Александр, Герард Монако, Тони Уолкер, Джехэн Стрелер, Карен Брайсон, Дорин Блэксток, Кэролайн Гарнелл, Элоиз Хенвуд, Гарри Дэйв МакЛарен, Тони Пэнкхерст-Перевод: Профессиональный (многоголосый, закадровый) | [Эй Би Видео] по заказу Первого канала
Субтитры: Русские (полные), Английские (полные)
Реклама: Отсутствует
Описание: Экранизация одноимённого романа Иэна Макьюэна 1987 года. У успешного детского писателя Стивена Льюиса (Бенедикт Камбербэтч) при загадочных обстоятельствах исчезает четырехлетняя дочь. Два года спустя после трагедии, отчаявшись найти ребенка, Льюис пытается смириться с произошедшим и начать жить заново самостоятельно, поскольку жена ушла от него, а друзья борются с собственными демонами. Стивен не перестаёт ни на минуту искать свою дочь. И вот однажды убитый горем отец встретил свою подросшую дочь на улице....
-Качество: BDRip-AVC | BDRemux | The.Child.in.Time.2017.BDRemux.TeamHD-ylnian
Продолжительность: 01:29:37
Формат: MKV
Видео кодек: MPEG-4 AVC
Аудио кодек: AC3
Видео: 1024x576 (16:9), 25,000 fps, x264 ~2 371 Кбит/сек, 0.161 bit/pixel
Аудио #1: 48 kHz, AC3 Dolby Digital, 2 (L,R) ch, ~192.00 kbps avg | RUS (Эй Би Видео)
Аудио #2: 48 kHz, AC3 Dolby Digital, 3/2 (L,C,R,l,r) + LFE ch, ~448.00 kbps avg | ENG-Дата премьеры (мир): 24 сентября 2017
Дата премьеры (РФ):
Цифровой релиз:

Релиз от:

MediaInfo

Общее
Уникальный идентификатор : 21256610043063023642177371670698145695 (0xFFDDFCA3F7DB63DAE36E91B2156379F)
Полное имя : F:OlLanDGroupThe.Child.in.Time.2017.BDRip(AVC).OlLanDGroup.mkv
Формат : Matroska
Версия формата : Version 4 / Version 2
Размер файла : 1,89 Гбайт
Продолжительность : 1 ч. 29 м.
Общий поток : 3013 Кбит/сек
Название фильма : The.Child.in.Time.2017 #TorpedoUK#
Дата кодирования : UTC 2019-02-06 09:24:00
Программа кодирования : mkvmerge v29.0.0 ('Like It Or Not') 64-bit
Библиотека кодирования : libebml v1.3.6 + libmatroska v1.4.9
Видео
Идентификатор : 1
Формат : AVC
Формат/Информация : Advanced Video Codec
Профиль формата : High@L4.1
Параметр CABAC формата : Да
Параметр ReFrames формата : 10 кадров
Идентификатор кодека : V_MPEG4/ISO/AVC
Продолжительность : 1 ч. 29 м.
Битрейт : 2371 Кбит/сек
Ширина : 1024 пикселя
Высота : 576 пикселей
Соотношение сторон : 16:9
Режим частоты кадров : Постоянный
Частота кадров : 25,000 кадров/сек
Цветовое пространство : YUV
Субдискретизация насыщенности : 4:2:0
Битовая глубина : 8 бит
Тип развёртки : Прогрессивная
Бит/(Пиксели*Кадры) : 0.161
Размер потока : 1,48 Гбайт (79%)
Библиотека кодирования : x264 core 146 r2538 121396c
Настройки программы : cabac=1 / ref=10 / deblock=1:-3:-3 / analyse=0x3:0x113 / me=umh / subme=11 / psy=1 / psy_rd=0.99:0.04 / mixed_ref=1 / me_range=48 / chroma_me=1 / trellis=2 / 8x8dct=1 / cqm=0 / deadzone=21,11 / fast_pskip=1 / chroma_qp_offset=-3 / threads=6 / lookahead_threads=1 / sliced_threads=0 / nr=0 / decimate=1 / interlaced=0 / bluray_compat=0 / constrained_intra=0 / bframes=11 / b_pyramid=2 / b_adapt=2 / b_bias=0 / direct=3 / weightb=1 / open_gop=0 / weightp=2 / keyint=250 / keyint_min=25 / scenecut=40 / intra_refresh=0 / rc_lookahead=40 / rc=2pass / mbtree=0 / bitrate=2371 / ratetol=1.0 / qcomp=0.60 / qpmin=0 / qpmax=69 / qpstep=4 / cplxblur=20.0 / qblur=0.5 / vbv_maxrate=50000 / vbv_bufsize=62500 / nal_hrd=none / filler=0 / ip_ratio=1.40 / pb_ratio=1.30 / aq=1:1.00
Язык : English
Default : Да
Forced : Нет
Аудио #1
Идентификатор : 2
Формат : AC-3
Формат/Информация : Audio Coding 3
Расширение режима : CM (complete main)
Параметр Endianness формата : Big
Идентификатор кодека : A_AC3
Продолжительность : 1 ч. 29 м.
Вид битрейта : Постоянный
Битрейт : 192 Кбит/сек
Каналы : 2 канала
Расположение каналов : Front: L R
Частота : 48,0 КГц
Частота кадров : 31,250 кадров/сек (1536 spf)
Битовая глубина : 16 бит
Метод сжатия : С потерями
Размер потока : 123 Мбайт (6%)
Заголовок : MVO [AB Video]
Язык : Russian
Default : Да
Forced : Нет
Аудио #2
Идентификатор : 3
Формат : AC-3
Формат/Информация : Audio Coding 3
Расширение режима : CM (complete main)
Параметр Endianness формата : Big
Идентификатор кодека : A_AC3
Продолжительность : 1 ч. 29 м.
Вид битрейта : Постоянный
Битрейт : 448 Кбит/сек
Каналы : 6 каналов
Расположение каналов : Front: L C R, Side: L R, LFE
Частота : 48,0 КГц
Частота кадров : 31,250 кадров/сек (1536 spf)
Битовая глубина : 16 бит
Метод сжатия : С потерями
Размер потока : 287 Мбайт (15%)
Заголовок : [Original]
Язык : English
Default : Нет
Forced : Нет
Текст #1
Идентификатор : 4
Формат : UTF-8
Идентификатор кодека : S_TEXT/UTF8
Идентификатор кодека/Информация : UTF-8 Plain Text
Продолжительность : 1 ч. 28 м.
Битрейт : 72 бит/сек
Count of elements : 771
Размер потока : 46,9 Кбайт (0%)
Заголовок : Full
Язык : Russian
Default : Нет
Forced : Нет
Текст #2
Идентификатор : 5
Формат : UTF-8
Идентификатор кодека : S_TEXT/UTF8
Идентификатор кодека/Информация : UTF-8 Plain Text
Продолжительность : 1 ч. 27 м.
Битрейт : 53 бит/сек
Count of elements : 1068
Размер потока : 34,4 Кбайт (0%)
Заголовок : Full
Язык : English
Default : Нет
Forced : Нет
Меню
00:00:00.000 : :Глава 01
00:09:35.200 : :Глава 02
00:21:49.440 : :Глава 03
00:29:44.720 : :Глава 04
00:39:48.559 : :Глава 05
00:50:40.920 : :Глава 06
01:03:13.840 : :Глава 07
01:12:12.840 : :Глава 08
01:23:02.118 : :Глава 09

Скриншоты



[Profile] [PM]
Кто просматривает тему:

Display posts from previous:    

The time now is: Today 15:04

All times are GMT



You cannot post new topics in this forum
You cannot reply to topics in this forum
You cannot edit your posts in this forum
You cannot delete your posts in this forum
You cannot vote in polls in this forum
You cannot attach files in this forum
You cannot download files in this forum