Извержение: Лос-Анджелес / Destruction Los Angeles (2017) WEBRip | L2

 
Author Message

BOSS ®

Gender:

Longevity: 4 years 10 months

Posts: 14162

Location: ODESSA



: 22 ()

Mega Releaser 1 (1) Top Seeder 3 (1) Top Releaser 5 (1)
Торрент-статистика

Post 02-Feb-2019 18:17

[Quote]

Информация о фильме
Название: Извержение: Лос-Анджелес
Оригинальное название: Destruction Los Angeles
Год выхода: 2017
Жанр: Боевик, приключения
Режиссер: Тибор Такач
В ролях: Крэйг Шеффер, Синтия Уэтрос, Лил Ромео, Эммануэль Вожье, С.Дж. Валлерой, Сидни Микелле, Омар Ангуло, Кевин Бирд, Сачин Бхатт, Чип Болсик
О фильме:
Роковой взрыв и внезапное землетрясение в Лос-Анджелесе, и репортер Джон Бенсон использует свой шанс, чтобы рассказать последние новости об усилении сейсмической активности.

Страна: США, Barking Cow Media Group
Продолжительность: 01:30:08
Перевод: Любительский (двухголосый закадровый) | HiWay Grope
Файл
Кодек: XviD
Качество: WEBRip
Видео: 720x400, 23.976 fps, ~1805 kbps, 0.26 bit/pixel
Звук:
Аудио rus: AC3, 48 kHz, 2 ch, 192 Kbps
Субтитры: отсутствуют
Реклама: присутствует
Семпл

MediaInfo:

General
Complete name : D:Destruction.Los.Angeles.2017.WEBRip.HiWayGropeDestruction.Los.Angeles.2017.WEBRip.HiWayGrope.avi
Format : AVI
Format/Info : Audio Video Interleave
Format profile : OpenDML
File size : 1.26 GiB
Duration : 1 h 30 min
Overall bit rate : 2 004 kb/s
Writing application : Lavf57.71.100
Video
ID : 0
Format : MPEG-4 Visual
Format profile : Advanced Simple@L5
Format settings, BVOP : No
Format settings, QPel : No
Format settings, GMC : No warppoints
Format settings, Matrix : Default (H.263)
Codec ID : XVID
Codec ID/Hint : XviD
Duration : 1 h 30 min
Bit rate : 1 800 kb/s
Width : 720 pixels
Height : 400 pixels
Display aspect ratio : 16:9
Frame rate : 23.976 (24000/1001) FPS
Color space : YUV
Chroma subsampling : 4:2:0
Bit depth : 8 bits
Scan type : Progressive
Compression mode : Lossy
Bits/(Pixel*Frame) : 0.261
Stream size : 1.13 GiB (90%)
Writing library : XviD 67
Audio
ID : 1
Format : AC-3
Format/Info : Audio Coding 3
Commercial name : Dolby Digital
Codec ID : 2000
Duration : 1 h 30 min
Bit rate mode : Constant
Bit rate : 192 kb/s
Channel(s) : 2 channels
Channel layout : L R
Sampling rate : 48.0 kHz
Frame rate : 31.250 FPS (1536 SPF)
Bit depth : 16 bits
Compression mode : Lossy
Stream size : 124 MiB (10%)
Alignment : Aligned on interleaves
Interleave, duration : 32 ms (0.77 video frame)
Service kind : Complete Main

Скриншоты

Релиз от: HiWay Grope
[Profile] [PM]
Display posts from previous:    

The time now is: Today 22:05

All times are GMT



You cannot post new topics in this forum
You cannot reply to topics in this forum
You cannot edit your posts in this forum
You cannot delete your posts in this forum
You cannot vote in polls in this forum
You cannot attach files in this forum
You cannot download files in this forum