(Heavy Metal) Virgin Steele - Life Among The Ruins (Japanese Edition) - 1993 [FLAC, image +.cue, lossless]

 
Author Message

sergej644 ®

Gender:

Longevity: 7 years 4 months

Posts: 7276

Location: Klaipeda



: 9 ()

Mega Seeder 3 (1) Mega Seeder 1 (1) Top Seeder 2 (1)
Торрент-статистика

Post 01-Feb-2019 17:42

[Quote]

-Virgin Steele - Life Among The Ruins (Japanese Edition)--
Год издания: 1993
Страна: USA
Жанр: Heavy Metal
Продолжительность: 00:54:15-Лейбл издания: Zero Corporation
Страна-выпуска диска: Japan
Номер по каталогу: XRCN-1053-Формат: FLAC
Битрейт аудио: Lossless
Тип рипа: image +.cue
Наличие сканов в содержимом раздачи: да
-

Трэклист


01. Sex Religion Machine (4:45)
02. Love Is Pain (3:53)
03. Jet Black (4:13)
04. Invitation (1:16)
05. I Dress In Black (Woman With No Shadow) (4:46)
06. Crown Of Thorns (6:28)
07. Cage Of Angels (Instrumental) (0:54)
08. Never Believed In Good-Bye (4:23)
09. Too Hot To Handle (4:40)
10. Love's Gone (4:28)
11. Wild Fire Woman (4:43)
12. Cry Forever (4:32)
13. Haunting The Last Hours (Instrumental) (0:54)
14. Last Rose Of Summer (4:20)
-

Лог создания рипа

Exact Audio Copy V1.3 from 2. September 2016
Отчёт EAC об извлечении, выполненном 19. января 2019, 17:38
Virgin Steele / Life Among The Ruins (Sample CD XRCN-1053)
Дисковод: PLEXTOR BD-R  PX-B950SA   Adapter: 1  ID: 0
Режим чтения                 : Достоверность
Использование точного потока : Да
Отключение кэша аудио        : Да
Использование указателей C2  : Нет
Коррекция смещения при чтении                     : 6
Способность читать области Lead-in и Lead-out     : Нет
Заполнение пропущенных сэмплов тишиной            : Да
Удаление блоков с тишиной в начале и конце        : Нет
При вычислениях CRC использовались нулевые сэмплы : Да
Интерфейс                                         : Встроенный Win32-интерфейс для Win NT/2000
Выходной формат          : Пользовательский кодировщик
Выбранный битрейт        : 1024 kBit/s
Качество                 : Высокий
Добавление ID3-тега      : Нет
Утилита сжатия           : C:\Program Files (x86)\Exact Audio Copy\FLAC\FLAC.EXE
Дополнительные параметры : -6 -V -T "ARTIST=%artist%" -T "TITLE=%title%" -T "ALBUM=%albumtitle%" -T "DATE=%year%" -T "TRACKNUMBER=%tracknr%" -T "GENRE=%genre%" -T "COMMENT=%comment%" -T "BAND=%albuminterpret%" -T "ALBUMARTIST=%albuminterpret%" -T "COMPOSER=%composer%" %haslyrics%--tag-from-file=LYRICS="%lyricsfile%"%haslyrics% -T "DISCNUMBER=%cdnumber%" -T "TOTALDISCS=%totalcds%" -T "TOTALTRACKS=%numtracks%" %hascover%--picture="%coverfile%"%hascover% %source% -o %dest%
TOC извлечённого CD
     Трек |   Старт  | Длительность | Начальный сектор | Конечный сектор
    ---------------------------------------------------------------------
       1  |  0:00.00 |    4:44.47   |           0      |      21346
       2  |  4:44.47 |    3:52.40   |       21347      |      38786
       3  |  8:37.12 |    4:12.50   |       38787      |      57736
       4  | 12:49.62 |    1:16.33   |       57737      |      63469
       5  | 14:06.20 |    4:45.47   |       63470      |      84891
       6  | 18:51.67 |    6:28.10   |       84892      |     114001
       7  | 25:20.02 |    0:54.18   |      114002      |     118069
       8  | 26:14.20 |    4:22.45   |      118070      |     137764
       9  | 30:36.65 |    4:39.57   |      137765      |     158746
      10  | 35:16.47 |    4:28.10   |      158747      |     178856
      11  | 39:44.57 |    4:43.30   |      178857      |     200111
      12  | 44:28.12 |    4:31.45   |      200112      |     220481
      13  | 48:59.57 |    0:54.28   |      220482      |     224559
      14  | 49:54.10 |    4:20.32   |      224560      |     244091
Характеристики диапазона извлечения и сообщения об ошибках
Выбранный диапазон
     Имя файла G:\RIP\Virgin Steele 1993 Japanese Pressing FLAC by alzal\Virgin Steele - Life Among The Ruins (Sample CD XRCN-1053).wav
     Пиковый уровень 100.0 %
     Скорость извлечения 3.2 X
     Качество диапазона 99.9 %
     CRC теста 998BFC37
     CRC копии 998BFC37
     Копирование... OK
Ошибок не произошло
AccurateRip: сводка
Трек  1  : извлечено точно (доверие 1)  [F1FD960A]  (AR v2)
Трек  2  : извлечено точно (доверие 1)  [E539F4D0]  (AR v2)
Трек  3  : извлечено точно (доверие 1)  [0BF36889]  (AR v2)
Трек  4  : извлечено точно (доверие 1)  [FB5A0D2B]  (AR v2)
Трек  5  : извлечено точно (доверие 1)  [AA5B0629]  (AR v2)
Трек  6  : извлечено точно (доверие 1)  [496106CC]  (AR v2)
Трек  7  : извлечено точно (доверие 1)  [C62BE23F]  (AR v2)
Трек  8  : извлечено точно (доверие 1)  [EC90F909]  (AR v2)
Трек  9  : извлечено точно (доверие 1)  [980BF8A3]  (AR v2)
Трек 10  : извлечено точно (доверие 1)  [34A325D0]  (AR v2)
Трек 11  : извлечено точно (доверие 1)  [5FC50E5A]  (AR v2)
Трек 12  : извлечено точно (доверие 1)  [BA2807AC]  (AR v2)
Трек 13  : извлечено точно (доверие 1)  [AE999EA6]  (AR v2)
Трек 14  : извлечено точно (доверие 1)  [3805C89C]  (AR v2)
Все треки извлечены точно
Конец отчёта

Индексная карта (non-compilant .cue)

REM GENRE "Hard N' Heavy"
REM DATE 1993
REM DISCID D50CB60E
REM COMMENT "ExactAudioCopy v1.3"
PERFORMER "Virgin Steele"
TITLE "Life Among The Ruins (Sample CD XRCN-1053)"
REM COMPOSER ""
FILE "Virgin Steele - Life Among The Ruins (Sample CD XRCN-1053).flac" WAVE
  TRACK 01 AUDIO
    TITLE "Sex Religion Machine"
    PERFORMER "Virgin Steele"
    REM COMPOSER ""
    INDEX 01 00:00:00
  TRACK 02 AUDIO
    TITLE "Love Is Pain"
    PERFORMER "Virgin Steele"
    REM COMPOSER ""
    INDEX 01 04:44:47
  TRACK 03 AUDIO
    TITLE "Jet Black"
    PERFORMER "Virgin Steele"
    REM COMPOSER ""
    INDEX 01 08:37:12
  TRACK 04 AUDIO
    TITLE "Invitation"
    PERFORMER "Virgin Steele"
    REM COMPOSER ""
    INDEX 01 12:49:62
  TRACK 05 AUDIO
    TITLE "I Dress In Black (Woman With No Shadow)"
    PERFORMER "Virgin Steele"
    REM COMPOSER ""
    INDEX 01 14:06:20
  TRACK 06 AUDIO
    TITLE "Crown Of Thorns"
    PERFORMER "Virgin Steele"
    REM COMPOSER ""
    INDEX 01 18:51:67
  TRACK 07 AUDIO
    TITLE "Cage Of Angels (Instrumental)"
    PERFORMER "Virgin Steele"
    REM COMPOSER ""
    INDEX 01 25:20:02
  TRACK 08 AUDIO
    TITLE "Never Believed In Good-Bye"
    PERFORMER "Virgin Steele"
    REM COMPOSER ""
    INDEX 01 26:14:20
  TRACK 09 AUDIO
    TITLE "Too Hot To Handle"
    PERFORMER "Virgin Steele"
    REM COMPOSER ""
    INDEX 01 30:36:65
  TRACK 10 AUDIO
    TITLE "Love's Gone"
    PERFORMER "Virgin Steele"
    REM COMPOSER ""
    INDEX 01 35:16:47
  TRACK 11 AUDIO
    TITLE "Wild Fire Woman"
    PERFORMER "Virgin Steele"
    REM COMPOSER ""
    INDEX 01 39:44:57
  TRACK 12 AUDIO
    TITLE "Cry Forever"
    PERFORMER "Virgin Steele"
    REM COMPOSER ""
    INDEX 01 44:28:12
  TRACK 13 AUDIO
    TITLE "Haunting The Last Hours (Instrumental)"
    PERFORMER "Virgin Steele"
    REM COMPOSER ""
    INDEX 01 48:59:57
  TRACK 14 AUDIO
    TITLE "Last Rose Of Summer"
    PERFORMER "Virgin Steele"
    REM COMPOSER ""
    INDEX 01 49:54:10
--
[Profile] [PM]
Display posts from previous:    

The time now is: Today 05:01

All times are GMT



You cannot post new topics in this forum
You cannot reply to topics in this forum
You cannot edit your posts in this forum
You cannot delete your posts in this forum
You cannot vote in polls in this forum
You cannot attach files in this forum
You cannot download files in this forum