Хэллфест / Hell Fest (2018) WEBRip | L2

 
Author Message

BOSS ®

Gender:

Longevity: 5 years 1 month

Posts: 14195

Location: ODESSA



: 22 ()

Top Releaser 4 (1) Mega Seeder 3 (1) Mega Releaser 1 (1)
Торрент-статистика

Post 05-Jan-2019 17:19

[Quote]

Информация о фильме
Название: Хэллфест
Оригинальное название: Hell Fest
Год выхода: 2018
Жанр: Ужасы
Режиссер: Грегори Плоткин
В ролях: Эми Форсайт, Рейн Эдвардс, Бекс Тейлор-Клаус, Кристиан Балис, Мэтт Меркьюрио, Тони Тодд, Микаэль Турек, Кортни Дитц, Эль Грэхэм, Алисия Росато
О фильме:
Три подруги встречаются накануне Хэллоуина и вместе со своими парнями решают отметить праздник походом на Хэллфест, популярный фестиваль, главная цель организаторов и участников которого - напугать друг друга до полусмерти. Но для серийного убийцы в маске Хэллфест - это не просто карнавал ужасов, а площадка для смертельных игр. Он кромсает и душит у всех на виду, а возбужденная толпа и не подозревает, что вокруг множатся трупы. И, когда внимание маньяка переключается на Натали, Брук и Тейлор, девушки быстро понимают, что помощи ждать не от кого. Им предстоит бороться изо всех сил, чтобы пережить эту ночь.

Страна: США, Tucker Tooley Entertainment, Valhalla Motion Pictures
Продолжительность: 01:29:18
Перевод: Любительский (двухголосый закадровый) | HiWay Grope
Файл
Кодек: XviD
Качество: WEBRip
Видео: 720x384, 23.976 fps, ~1801 kbps, 0.27 bit/pixel
Звук:
Аудио rus: AC3, 48 kHz, 2 ch, 192 Kbps
Субтитры: отсутствуют
Реклама: присутствует
Семпл

MediaInfo:

General
Complete name : D:Hell.Fest.2018.WEBRip.HiWayGropeHell.Fest.2018.WEBRip.HiWayGrope.avi
Format : AVI
Format/Info : Audio Video Interleave
Format profile : OpenDML
File size : 1.25 GiB
Duration : 1 h 29 min
Overall bit rate : 2 001 kb/s
Writing application : Lavf57.71.100
Video
ID : 0
Format : MPEG-4 Visual
Format profile : Advanced Simple@L5
Format settings, BVOP : No
Format settings, QPel : No
Format settings, GMC : No warppoints
Format settings, Matrix : Default (H.263)
Codec ID : XVID
Codec ID/Hint : XviD
Duration : 1 h 29 min
Bit rate : 1 796 kb/s
Width : 720 pixels
Height : 384 pixels
Display aspect ratio : 1.85:1
Frame rate : 23.976 (24000/1001) FPS
Color space : YUV
Chroma subsampling : 4:2:0
Bit depth : 8 bits
Scan type : Progressive
Compression mode : Lossy
Bits/(Pixel*Frame) : 0.271
Stream size : 1.12 GiB (90%)
Writing library : XviD 67
Audio
ID : 1
Format : AC-3
Format/Info : Audio Coding 3
Commercial name : Dolby Digital
Codec ID : 2000
Duration : 1 h 29 min
Bit rate mode : Constant
Bit rate : 192 kb/s
Channel(s) : 2 channels
Channel layout : L R
Sampling rate : 48.0 kHz
Frame rate : 31.250 FPS (1536 SPF)
Bit depth : 16 bits
Compression mode : Lossy
Stream size : 123 MiB (10%)
Alignment : Aligned on interleaves
Interleave, duration : 32 ms (0.77 video frame)
Service kind : Complete Main

Скриншоты

Релиз от: HiWay Grope
[Profile] [PM]
Display posts from previous:    

The time now is: Today 15:47

All times are GMT



You cannot post new topics in this forum
You cannot reply to topics in this forum
You cannot edit your posts in this forum
You cannot delete your posts in this forum
You cannot vote in polls in this forum
You cannot attach files in this forum
You cannot download files in this forum