Проигранное место (2017) WEBRip

 
Author Message

BOSS ®

Gender:

Longevity: 5 years 3 months

Posts: 14230

Location: ODESSA



: 22 ()

Top Releaser 3 (1) Mega Releaser 2 (1) Top Seeder 5 (1)
Торрент-статистика

Post 16-Dec-2018 19:29

[Quote]

Год выпуска: 2017
Жанр: ужасы
Выпущено: Россия, ВВП Альянс
Режиссер: Надежда Михалкова
В ролях: Анна Михалкова, Алексей Дякин, Ирина Мартыненко, Алексей Мартынов, Никита Еленев, Сергей Городничий, Валентина Ляпина, Анастасия Акатова, Арам Вардеванян, Ольга Озоллапиня
О фильме: Среди старшеклассников бытует легенда о «проигранном месте» в кинотеатре — говорят, что каждый, кто покупает туда билет, обречен на смерть. Никто не воспринимает эту историю всерьез, но вскоре серия жутких убийств заставляет компанию друзей вспомнить о зловещей легенде. Старшеклассники начинают собственное расследование, но сами оказываются под подозрением. Загнанные в ловушку страхом и недоверием друзья решают бросить вызов призраку «проигранного места».

Качество: WEBRip
Видео: XviD build 73, 640x336 (1.905), 29.970 fps, 996 Kbps (0.155 bit/pixel)
Аудио: 48.0 kHz, MP3, 2/0 ch, 128 kbps
Продолжительность: 01:31:46
Перевод: Не требуется
Cубтитры: нет

Скриншоты

MediaInfo

General
Complete name : D:RazdachiProigrannoe.Mesto.2018.XviD.WEBRip.GeneralFilm.avi
Format : AVI
Format/Info : Audio Video Interleave
File size : 746 MiB
Duration : 1 h 31 min
Overall bit rate : 1 136 kb/s
Writing application : VirtualDubMod 1.5.10.3 | www.virtualdub-fr.org || (build 2550/release)
Writing library : VirtualDubMod build 2550/release
Video
ID : 0
Format : MPEG-4 Visual
Format profile : Advanced Simple@L5
Format settings, BVOP : 1
Format settings, QPel : No
Format settings, GMC : No warppoints
Format settings, Matrix : Custom
Codec ID : XVID
Codec ID/Hint : XviD
Duration : 1 h 31 min
Bit rate : 996 kb/s
Width : 640 pixels
Height : 336 pixels
Display aspect ratio : 1.905
Frame rate : 29.970 (30000/1001) FPS
Color space : YUV
Chroma subsampling : 4:2:0
Bit depth : 8 bits
Scan type : Progressive
Compression mode : Lossy
Bits/(Pixel*Frame) : 0.155
Stream size : 654 MiB (88%)
Writing library : XviD 73
Audio
ID : 1
Format : MPEG Audio
Format version : Version 1
Format profile : Layer 3
Codec ID : 55
Codec ID/Hint : MP3
Duration : 1 h 31 min
Bit rate mode : Constant
Bit rate : 128 kb/s
Channel(s) : 2 channels
Sampling rate : 48.0 kHz
Compression mode : Lossy
Stream size : 84.0 MiB (11%)
Alignment : Aligned on interleaves
Interleave, duration : 33 ms (1.00 video frame)
Interleave, preload duratio : 504 ms
Writing library : LAME3.99r
Encoding settings : -m s -V 4 -q 2 -lowpass 17 -b 128
[Profile] [PM]
Display posts from previous:    

The time now is: Today 06:29

All times are GMT



You cannot post new topics in this forum
You cannot reply to topics in this forum
You cannot edit your posts in this forum
You cannot delete your posts in this forum
You cannot vote in polls in this forum
You cannot attach files in this forum
You cannot download files in this forum