Гора / Dag (2012) WEB-DLRip 720p | LakeFilms

 
Автор Сообщение

BOSS ®

Пол:

Стаж: 4 года 2 месяца

Сообщений: 12658

Откуда: ODESSA



Награды: 22 (Подробнее)

Top Releaser 3 (Количество: 1) Top Seeder 3 (Количество: 1) Mega Releaser 3 (Количество: 1)
Торрент-статистика

Создавать темы 11-Окт-2018 19:29

[Цитировать]

Название: Гора
Оригинальное название: Dag (The Mountain, Forgotten Soldiers)
Год выпуска: 2012
Жанр: Триллер, драма, приключения, военный
Выпущено: Турция, Mars Entertainment Grou
Режиссер: Алпер Каглар
В ролях: Чаглар Эртугрул, Уфук Байрактар, Месут Акуста, Дженгиз Джошкун, Гёзде Мутлуэр, Серкан Янар, Али Аксёз, Асуман Каракулукку
О фильме: Группа солдат, чинившая горную антенну, попала в засаду. В живых остались Бекир и Огуз, два противоположных по характеру бойца: один служит уже не первый год, второй пришел добровольно после учебы на историческом факультете, на пару месяцев. Тем не менее, в этом «походе за жизнь» среди зимних гор они узнают друг друга получше.


Техданные
Качество: WEB-DLRip (720p)
Видео: MPEG-4 AVC, 4 121 Кбит/с, 1280x720, 24.000 FPS
Аудио: AAC, 6 ch, 445 Кбит/с
Продолжительность: 01:26:30
Перевод: Любительский двухголосый закадровый
Присутствует реклама!

Скриншоты

MI

General
Unique ID : 82319992110357079933486158379199685691 (0x3DEE40F7E7459322D333DD24509AE43B)
Complete name : D:LakeFIlmsDag.2012.720p.WEB-DL.LakeFilms.mkv
Format : Matroska
Format version : Version 4
File size : 2.78 GiB
Duration : 1 h 26 min
Overall bit rate : 4 609 kb/s
Encoded date : UTC 2018-10-10 15:42:43
Writing application : Lavf57.71.100
Writing library : Lavf57.71.100
ErrorDetectionType : Per level 1
Video
ID : 1
Format : AVC
Format/Info : Advanced Video Codec
Format profile : Main@L3.1
Format settings : CABAC / 1 Ref Frames
Format settings, CABAC : Yes
Format settings, ReFrames : 1 frame
Format settings, GOP : M=1, N=25
Codec ID : V_MPEG4/ISO/AVC
Duration : 1 h 26 min
Bit rate mode : Constant
Bit rate : 4 121 kb/s
Width : 1 280 pixels
Height : 720 pixels
Display aspect ratio : 16:9
Frame rate mode : Constant
Frame rate : 24.000 FPS
Color space : YUV
Chroma subsampling : 4:2:0
Bit depth : 8 bits
Scan type : Progressive
Bits/(Pixel*Frame) : 0.186
Stream size : 2.58 GiB (93%)
Language : English
Default : Yes
Forced : No
Audio
ID : 2
Format : AAC LC
Format/Info : Advanced Audio Codec Low Complexity
Codec ID : A_AAC-2
Duration : 1 h 26 min
Bit rate : 445 kb/s
Channel(s) : 6 channels
Channel layout : C L R Ls Rs LFE
Sampling rate : 48.0 kHz
Frame rate : 46.875 FPS (1024 SPF)
Compression mode : Lossy
Stream size : 276 MiB (10%)
Language : English
Default : Yes
Forced : No
[Профиль] [ЛС]
Показать сообщения:    

Текущее время: Сегодня 14:06

Часовой пояс: GMT



Вы не можете начинать темы
Вы не можете отвечать на сообщения
Вы не можете редактировать свои сообщения
Вы не можете удалять свои сообщения
Вы не можете голосовать в опросах
Вы не можете прикреплять файлы к сообщениям
Вы не можете скачивать файлы