Первый свет / First Light (2018) WEBRip 720p | L2

 
Автор Сообщение

Swager ®

Пол:

Стаж: 3 года

Сообщений: 1835



Награды: 4 (Подробнее)

Mega Seeder 1 (Количество: 1) Mega Seeder 2 (Количество: 1) Top Releaser 2 (Количество: 1)
Торрент-статистика

Создавать темы 11-Окт-2018 07:45

[Цитировать]

Информация о фильме
Название: Первый свет
Оригинальное название: First Light
Год выхода: 2018
Жанр: Триллер
Режиссер: Джейсон Стоун
В ролях: Теодор Пеллерен, Кристин Бут, Кейт Бёртон, Джош Круддас, Шон Дивайн, Ингрид Дион, Хейко Эффенбергер, Дэна Фрадкин, Александр Гомес, Эрик Гидинг и другие
О фильме:
Фильм повествует о старшекласснице Алекс Лейни. Однажды ночью она сталкивается с таинственными огнями, появившимися над ее маленьким городом. Вскоре она узнает, что у нее появились опасные сверхспособности. Не зная, куда податься, девушка обращается за помощью к другу детства Шону. А тем временем власти следуют за ними по пятам, желая выяснить, что случилось с Алекс.

Страна: США, Oddfellows Entertainment
Продолжительность: 01:31:14
Перевод: Любительский (двухголосый закадровый) | HiWay Grope
Файл
Кодек: MPEG-4 AVC/x.264
Качество: WEBRip 720p
Видео: 1280x528, 25.000 fps, ~3887 kbps, 0.230 bit/pixel
Звук:
Аудио rus: AC3, 48 kHz, 6 ch, 384 Kbps
Субтитры: отсутствуют
Реклама: присутствует
Семпл

MediaInfo:

General
Unique ID : 190870202211079886455375092277682518597 (0x8F984387EF69515AB0C2D8C9D8BE3A45)
Complete name : D:First.Light.2018.720p.WEBRip.HiWayGropeFirst.Light.2018.720p.WEBRip.HiWayGrope.mkv
Format : Matroska
Format version : Version 2
File size : 2.78 GiB
Duration : 1 h 31 min
Overall bit rate : 4 358 kb/s
Encoded date : UTC 2018-10-10 15:38:57
Writing application : mkvmerge v3.3.0 ('Language') built on Mar 24 2010 14:59:24
Writing library : libebml v0.8.0 + libmatroska v0.9.0
Video
ID : 1
Format : AVC
Format/Info : Advanced Video Codec
Format profile : Main@L3.1
Format settings : CABAC / 3 Ref Frames
Format settings, CABAC : Yes
Format settings, RefFrames : 3 frames
Codec ID : V_MPEG4/ISO/AVC
Duration : 1 h 31 min
Bit rate : 3 887 kb/s
Width : 1 280 pixels
Height : 528 pixels
Display aspect ratio : 2.40:1
Frame rate mode : Constant
Frame rate : 25.000 FPS
Standard : PAL
Color space : YUV
Chroma subsampling : 4:2:0
Bit depth : 8 bits
Scan type : Progressive
Bits/(Pixel*Frame) : 0.230
Stream size : 2.48 GiB (89%)
Language : English
Default : Yes
Forced : No
Color range : Limited
Color primaries : BT.601 NTSC
Transfer characteristics : BT.601
Matrix coefficients : BT.601
Audio
ID : 2
Format : AC-3
Format/Info : Audio Coding 3
Codec ID : A_AC3
Duration : 1 h 31 min
Bit rate mode : Constant
Bit rate : 384 kb/s
Channel(s) : 6 channels
Channel positions : Front: L C R, Side: L R, LFE
Sampling rate : 48.0 kHz
Frame rate : 31.250 FPS (1536 SPF)
Bit depth : 16 bits
Compression mode : Lossy
Stream size : 251 MiB (9%)
Service kind : Complete Main
Default : Yes
Forced : No

Скриншоты

Релиз от: HiWay Grope
[Профиль] [ЛС]
Кто просматривает тему:

Форум Тема Автор Размер
Author's Song (Авторская песня) Владимир Высоцкий - Я Первый Раз В Италии 1979 (Solyd Records 1999) [APE, image +.cue, lossless] sergej644 262 MB
Фильмы 2014 года 71 / Семьдесят первый / '71 (Ян Деманж) [2014 г., Боевик, триллер, драма, HDRip] AVO (Матвеев) + SUB BOSS 1.36 GB
Фильмы (HD DVD, Blu-ray и BDRemux) 8 первых свиданий (2012) Blu-Ray Remux 1080p sergej644 14.21 GB
Фильмы (HD Rips | 720p, 1080p) 8 первых свиданий (Дэвид Додсон, Александр Маляревский) [2012, Россия, комедия, Blu-ray Disc 1080p] TorrentFilm 18.26 GB
Фильмы (DVD 5/9) 8 первых свиданий (Дэвид Додсон, Александр Маляревский) [2012, Россия, Мелодрама, комедия, BD>DVD5 (Custom)] TorrentFilm 4.32 GB
Фильмы (DVD 5/9) 8 первых свиданий (Дэвид Додсон, Александр Маляревский) [2012, Россия, Мелодрама, комедия, BD>DVD9 (Custom)] TorrentFilm 6 GB
BBC BBC: Первый в мире компьютер. Разгадка Антикитерского механизма / The World's First Computer: Decoding Antikythera Mechanism (Майкл Бекхэм / Michael Beckham) [2012 г., Докум... skorpionN 1.46 GB
Бокс, Бои без правил, К1 Floyd Mayweather Jr. vs Manny Pacquiao / Флойд Мэйвезер - Мэнни Пакьяо / Первый HD [02.05.2015, Бокс, 50fps, HDTVRip 720p, RU] Russian Mafia 3.34 GB
Показать сообщения:    

Текущее время: Сегодня 08:02

Часовой пояс: GMT



Вы не можете начинать темы
Вы не можете отвечать на сообщения
Вы не можете редактировать свои сообщения
Вы не можете удалять свои сообщения
Вы не можете голосовать в опросах
Вы не можете прикреплять файлы к сообщениям
Вы не можете скачивать файлы