Придержи тьму / Hold the Dark (Джереми Солнье) [2018, Триллер, драма, детектив, приключения , WEB-DLRip][1080p][NewStudiо+Хихикающий доктор+Eng]+[Subs Rus , ENG]

 
Author Message

Враг Нароода ®

Gender:

Longevity: 4 years 3 months

Posts: 277



: 2 ()

Mega Seeder 1 (1) За внесенный вклад в развитие сайта (1)
Торрент-статистика

Post 07-Oct-2018 21:09

[Quote]

--Придержи тьму / Hold the Dark-- --Год выпуска: 2018
Выпущено: США , Addictive Pictures, Film Science, VisionChaos Productions
Жанр: Триллер, драма, детектив, приключения
Продолжительность: 02:05:15--Озвучка 1: - Профессиональный многоголосый - NewStudio - Русский
Озвучка 2: - Любительский одноголосый - (Хихикающий доктор) - Русский
Озвучка 3: Профессиональный многоголосый -Английский -Оригинал
Субтитры: Russian , English, English (SDH)--Релиз Без Рекламы--MDB --Режиссер:
Джереми Солнье--В ролях: Джеффри Райт, Беккам Кроуфорд, Райли Кио, Майкл Тэйлс, Исаак Берд, Джозеф Уайтберд, Зандус Сноу, Джулиан Шэмп, Александр Скарсгард, Конор Бору-- Маленький городок на Аляске. Бесследно исчезает игравший на улице шестилетний мальчик. Поскольку в округе уже были случаи похищения детей волками, мать исчезнувшего Медора Слоун пишет письмо исследователю и специалисту по волкам Расселлу Кору с просьбой выследить и убить того волка, который забрал её сына. Женщина считает, что должна что-то предъявить мужу, когда тот вернётся с войны в Ираке. Приехав, Рассел слушает рассказы Медоры про тяжелое небо и тьму снаружи, а когда отправляется выслеживать волков, старая женщина говорит ему, что зло в другой стороне.-- --Качество :WEB-DLRip 1080p
Формат: MKV
Видео кодек: H264
Видео: 2870Кбит/сек,1920х1080(16.9),в 23.976кадр/сек,AVC (Main@L4)(CABAC/3 Ref Frames)--Аудио Кодек:AC3
Аудио #1:AC3 , 640 Kbps, 48.0 KHz, 6 ch- NewStudio-Русский
Аудио #2:AC3 , 192 Kbps, 48.0 KHz, 6 ch- - (Хихикающий доктор) -Русский
Аудио #3: AC3, 640 Kbps, 48.0 KHz,6 ch - - English-Английский -Оригинал--

MediaInfo

Общее
Уникальный идентификатор : 270490944017953782184095186284074140663 (0xCB7EA92F3BC1B9F3F59F0771E75A83F7)
Полное имя : E:\Nikolai.Baranov & PIRATIYA\Придержи тьму - Hold the Dark\HOLD_THE_DARK_2018_Н264_DD5.1_N.B_HD_1080_2xRus_Eng\Hold_the_Dark_2018_2018_Н264_DD5.1_N.B_HD_1080_2xRus_Eng.mkv
Формат : Matroska
Версия формата : Version 4
Размер файла : 3,78 Гбайт
Продолжительность : 2 ч. 5 м.
Режим общего битрейта : Переменный
Общий поток : 4303 Кбит/сек
Название фильма : Hold the Dark 2018 @ Nikolai.Baranov & PIRATIYA
Дата кодирования : UTC 2018-10-07 18:41:07
Программа кодирования : mkvmerge v27.0.0 ('Metropolis') 64-bit
Библиотека кодирования : libebml v1.3.6 + libmatroska v1.4.9
Видео
Идентификатор : 1
Формат : AVC
Формат/Информация : Advanced Video Codec
Профиль формата : Main@L4
Настройки формата : CABAC / 3 Ref Frames
Параметр CABAC формата : Да
Параметр RefFrames формата : 3 кадра
Идентификатор кодека : V_MPEG4/ISO/AVC
Продолжительность : 2 ч. 5 м.
Вид битрейта : Переменный
Битрейт : 2870 Кбит/сек
Максимальный битрейт : 4305 Кбит/сек
Ширина : 1920 пикселей
Высота : 1080 пикселей
Соотношение сторон : 16:9
Режим частоты кадров : Постоянный
Частота кадров : 23,976 (24000/1001) кадра/сек
Цветовое пространство : YUV
Субдискретизация насыщенности : 4:2:0
Битовая глубина : 8 бит
Тип развёртки : Прогрессивная
Бит/(Пиксели*Кадры) : 0.058
Размер потока : 2,49 Гбайт (66%)
Заголовок : Hold_the_Dark_2018_2018_Н264_DD5.1_N.B_HD_1080_2xRus_Eng
Библиотека кодирования : x264 core 148 r2715 7e75228
Настройки программы : cabac=1 / ref=3 / deblock=1:0:0 / analyse=0x1:0x111 / me=umh / subme=10 / psy=1 / psy_rd=1.00:0.00 / mixed_ref=1 / me_range=24 / chroma_me=1 / trellis=2 / 8x8dct=0 / cqm=0 / deadzone=21,11 / fast_pskip=1 / chroma_qp_offset=-2 / threads=8 / lookahead_threads=1 / sliced_threads=0 / nr=0 / decimate=1 / interlaced=0 / bluray_compat=0 / stitchable=1 / constrained_intra=0 / bframes=2 / b_pyramid=0 / b_adapt=2 / b_bias=0 / direct=3 / weightb=1 / open_gop=0 / weightp=2 / keyint=48 / keyint_min=25 / scenecut=0 / intra_refresh=0 / rc_lookahead=48 / rc=2pass / mbtree=1 / bitrate=2870 / ratetol=1.0 / qcomp=0.50 / qpmin=6 / qpmax=51 / qpstep=4 / cplxblur=20.0 / qblur=0.5 / vbv_maxrate=4305 / vbv_bufsize=5740 / nal_hrd=vbr / filler=0 / ip_ratio=1.40 / aq=1:1.00
Язык : Russian
Default : Да
Forced : Нет
Аудио #1
Идентификатор : 5
Формат : AC-3
Формат/Информация : Audio Coding 3
Коммерческое название : Dolby Digital
Идентификатор кодека : A_AC3
Продолжительность : 2 ч. 5 м.
Вид битрейта : Постоянный
Битрейт : 640 Кбит/сек
Каналы : 6 каналов
Channel layout : L R C LFE Ls Rs
Частота : 48,0 КГц
Частота кадров : 31,250 кадров/сек (1536 SPF)
Битовая глубина : 16 бит
Метод сжатия : С потерями
Размер потока : 573 Мбайт (15%)
Заголовок : MVO NewStudio @DD5.1 AC3, 640 Kbps, 48.0 KHz, 6 ch
Язык : Russian
ServiceKind/String : Complete Main
Default : Да
Forced : Нет
Аудио #2
Идентификатор : 6
Формат : AC-3
Формат/Информация : Audio Coding 3
Коммерческое название : Dolby Digital
Идентификатор кодека : A_AC3
Продолжительность : 2 ч. 5 м.
Вид битрейта : Постоянный
Битрейт : 192 Кбит/сек
Каналы : 6 каналов
Channel layout : L R C LFE Ls Rs
Частота : 48,0 КГц
Частота кадров : 31,250 кадров/сек (1536 SPF)
Битовая глубина : 16 бит
Метод сжатия : С потерями
Размер потока : 172 Мбайт (4%)
Заголовок : АO Хихикающий доктор @DD5.1 AC3, 192 Kbps, 48.0 KHz, 6 ch
Язык : Russian
ServiceKind/String : Complete Main
Default : Нет
Forced : Нет
Аудио #3
Идентификатор : 7
Формат : AC-3
Формат/Информация : Audio Coding 3
Коммерческое название : Dolby Digital
Идентификатор кодека : A_AC3
Продолжительность : 2 ч. 5 м.
Вид битрейта : Постоянный
Битрейт : 640 Кбит/сек
Каналы : 6 каналов
Channel layout : L R C LFE Ls Rs
Частота : 48,0 КГц
Частота кадров : 31,250 кадров/сек (1536 SPF)
Битовая глубина : 16 бит
Метод сжатия : С потерями
Размер потока : 573 Мбайт (15%)
Заголовок : Original@DD5.1 AC3 ,640 Kbps, 48.0 KHz, 6 ch
Язык : English
ServiceKind/String : Complete Main
Default : Нет
Forced : Нет
Текст #1
Идентификатор : 2
Формат : UTF-8
Идентификатор кодека : S_TEXT/UTF8
Идентификатор кодека/Информация : UTF-8 Plain Text
Продолжительность : 1 ч. 58 м.
Битрейт : 33 бит/сек
ElementCount : 792
Размер потока : 29,2 Кбайт (0%)
Заголовок : Rus
Язык : Russian
Default : Да
Forced : Нет
Текст #2
Идентификатор : 3
Формат : UTF-8
Идентификатор кодека : S_TEXT/UTF8
Идентификатор кодека/Информация : UTF-8 Plain Text
Продолжительность : 1 ч. 59 м.
Битрейт : 27 бит/сек
ElementCount : 960
Размер потока : 23,8 Кбайт (0%)
Заголовок : Original - SDH
Язык : English
Default : Нет
Forced : Нет
Текст #3
Идентификатор : 4
Формат : UTF-8
Идентификатор кодека : S_TEXT/UTF8
Идентификатор кодека/Информация : UTF-8 Plain Text
Продолжительность : 1 ч. 56 м.
Битрейт : 22 бит/сек
ElementCount : 779
Размер потока : 19,1 Кбайт (0%)
Заголовок : Original
Язык : English
Default : Нет
Forced : Нет
Меню
00:00:00.000 : :Глава 01 / :Глава 01 / :Глава 01 / :Глава 01 / :Глава 01 / :Глава 01 / :Глава 01
--

Скриншоты

-- -- -- --Релиз от: Nikolai.Baranov & PIRATIYA - Поблагодарить:
ЯД: 410017546713876
-- -- -- --Время раздачи : 24/7--
[Profile] [PM]
Display posts from previous:    

The time now is: Today 11:07

All times are GMT



You cannot post new topics in this forum
You cannot reply to topics in this forum
You cannot edit your posts in this forum
You cannot delete your posts in this forum
You cannot vote in polls in this forum
You cannot attach files in this forum
You cannot download files in this forum