Это чертово сердце / Dieses bescheuerte Herz (2017) BDRip 1080p | iTunes

 
Author Message

BOSS ®

Gender:

Longevity: 4 years 8 months

Posts: 14112

Location: ODESSA



: 22 ()

Mega Seeder 2 (1) Mega Seeder 5 (1) Top Keeper 4 (1)
Торрент-статистика

Post 06-Oct-2018 13:11

[Quote]

Информация о фильме
Название: Это чертово сердце
Оригинальное название: Dieses bescheuerte Herz
Год выхода: 2017
Жанр: Драма, комедия
Страна: Германия
Перевод: Дублированный | iTunes
Продолжительность: 01:46:21
Режиссер: Марк Ротемунд
В ролях: Элиас ЭмБарек, Филип Шварц, Надина Вриц, Уве Пройсс, Лиза Биттер, Юрген Тонкель, Бруно Саутер, Лу Бишофф, Себастьян Герольд, Ким Гиршнер и др.
О фильме: Единственное занятие Ленни — бесконечные вечеринки с друзьями. Он привык, что любой его каприз оплачивает отец. В одном городе с ним живет 15-летний Дэвид, который почти всё своё время проводит дома. У Дэвида врожденный порок сердца и прогнозы врачей не слишком утешительны. Отец Ленни, устав от безделья сына, поручает тому заботу о Дэвиде. Неожиданно эти двое становятся друг для друга незаменимыми. Ленни помогает парню ощутить вкус к жизни и осуществить мечты, а Дэвид, в свою очередь, дает ему возможность почувствовать ответственность за свою жизнь и жизнь тех, кто рядом.

Файл
Качество: BDRip 1080p
Видео: MPEG-4 AVC, 1920x802, 9400 kbps, 24,000 fps
Звук#1: русский, AC3, 5.1 ch, 48 kHz, 384 kbps | iTunes
Звук#2: немецкий, AC3, 5.1 ch, 48 kHz, 640 kbps | оригинал
Субтитры: русские, немецкие

MI

General
Уникальный идентификатор : 182619303423214695057526443197256666027 (0x896332D025F5F4898CF0C193CE8B8BAB)
Полное имя : F:TorrentEtoChertovoSerdceBDRip1080p.mkv
Формат : Matroska
Версия формата : Version 4 / Version 2
Размер файла : 7.74 GiB
Продолжительность : 1 h 46 min
Общий поток : 10.4 Mb/s
Дата кодирования : UTC 2018-10-05 18:46:08
Программа кодирования : mkvmerge v9.5.0 ('Quiet Fire') 64bit
Библиотека кодирования : libebml v1.3.4 + libmatroska v1.4.5
Video
Идентификатор : 1
Формат : AVC
Формат/Информация : Advanced Video Codec
Профиль формата : High@L4.1
Настройки формата : CABAC / 5 Ref Frames
Параметр CABAC формата : Yes
Параметр RefFrames формата : 5 frames
Идентификатор кодека : V_MPEG4/ISO/AVC
Продолжительность : 1 h 46 min
Битрейт : 9 400 kb/s
Ширина : 1 920 pixels
Высота : 802 pixels
Соотношение сторон : 2.40:1
Режим частоты кадров : Constant
Частота кадров : 24.000 FPS
Цветовое пространство : YUV
Субдискретизация насыщенности : 4:2:0
Битовая глубина : 8 bits
Тип развёртки : Progressive
Бит/(Пиксели*Кадры) : 0.254
Размер потока : 6.98 GiB (90%)
Библиотека кодирования : x264 core 155 r2901M 7d0ff22
Настройки программы : cabac=1 / ref=5 / deblock=1:-1:-1 / analyse=0x3:0x113 / me=umh / subme=11 / psy=1 / psy_rd=1.00:0.00 / mixed_ref=1 / me_range=48 / chroma_me=1 / trellis=2 / 8x8dct=1 / cqm=0 / deadzone=21,11 / fast_pskip=0 / chroma_qp_offset=-2 / threads=9 / lookahead_threads=2 / sliced_threads=0 / nr=0 / decimate=0 / interlaced=0 / bluray_compat=0 / constrained_intra=0 / bframes=12 / b_pyramid=2 / b_adapt=2 / b_bias=0 / direct=3 / weightb=1 / open_gop=0 / weightp=2 / keyint=240 / keyint_min=24 / scenecut=40 / intra_refresh=0 / rc_lookahead=120 / rc=2pass / mbtree=0 / bitrate=9400 / ratetol=1.0 / qcomp=0.70 / qpmin=0 / qpmax=69 / qpstep=4 / cplxblur=20.0 / qblur=0.5 / vbv_maxrate=50000 / vbv_bufsize=62500 / nal_hrd=none / filler=0 / ip_ratio=1.40 / pb_ratio=1.30 / aq=3:0.80
Default : Yes
Forced : No
Audio #1
Идентификатор : 2
Формат : AC-3
Формат/Информация : Audio Coding 3
Идентификатор кодека : A_AC3
Продолжительность : 1 h 46 min
Вид битрейта : Constant
Битрейт : 384 kb/s
Каналы : 6 channels
Расположение каналов : Front: L C R, Side: L R, LFE
Частота : 48.0 kHz
Частота кадров : 31.250 FPS (1536 SPF)
Битовая глубина : 16 bits
Метод сжатия : Lossy
Размер потока : 292 MiB (4%)
Язык : Russian
Default : Yes
Forced : No
Audio #2
Идентификатор : 3
Формат : AC-3
Формат/Информация : Audio Coding 3
Идентификатор кодека : A_AC3
Продолжительность : 1 h 46 min
Вид битрейта : Constant
Битрейт : 640 kb/s
Каналы : 6 channels
Расположение каналов : Front: L C R, Side: L R, LFE
Частота : 48.0 kHz
Частота кадров : 31.250 FPS (1536 SPF)
Битовая глубина : 16 bits
Метод сжатия : Lossy
Размер потока : 487 MiB (6%)
Язык : German
Default : No
Forced : No
Text #1
Идентификатор : 4
Формат : UTF-8
Идентификатор кодека : S_TEXT/UTF8
Идентификатор кодека/Информация : UTF-8 Plain Text
Продолжительность : 1 h 41 min
Битрейт : 90 b/s
ElementCount : 1339
Размер потока : 66.9 KiB (0%)
Язык : Russian
Default : No
Forced : No
Text #2
Идентификатор : 5
Формат : UTF-8
Идентификатор кодека : S_TEXT/UTF8
Идентификатор кодека/Информация : UTF-8 Plain Text
Продолжительность : 1 h 45 min
Битрейт : 56 b/s
ElementCount : 1340
Размер потока : 44.1 KiB (0%)
Язык : German
Default : No
Forced : No
Menu
00:00:00.000 : en:Chapter 1
00:06:30.583 : en:Chapter 2
00:12:45.916 : en:Chapter 3
00:21:06.125 : en:Chapter 4
00:28:07.458 : en:Chapter 5
00:36:11.125 : en:Chapter 6
00:42:57.458 : en:Chapter 7
00:51:28.541 : en:Chapter 8
00:57:14.541 : en:Chapter 9
01:03:08.458 : en:Chapter 10
01:10:24.958 : en:Chapter 11
01:16:56.250 : en:Chapter 12
01:23:53.125 : en:Chapter 13
01:29:51.041 : en:Chapter 14
01:34:51.041 : en:Chapter 15
01:41:39.416 : en:Chapter 16
[Profile] [PM]
Кто просматривает тему:

Display posts from previous:    

The time now is: Today 12:08

All times are GMT



You cannot post new topics in this forum
You cannot reply to topics in this forum
You cannot edit your posts in this forum
You cannot delete your posts in this forum
You cannot vote in polls in this forum
You cannot attach files in this forum
You cannot download files in this forum