Монки / Monky (2017) HDRip 1080р | GreenРай Studio

 
Author Message

BOSS ®

Gender:

Longevity: 4 years 8 months

Posts: 14112

Location: ODESSA



: 22 ()

Top Seeder 2 (1) За внесенный вклад в развитие сайта (1) Top Releaser 3 (1)
Торрент-статистика

Post 06-Oct-2018 10:37

[Quote]

Информация о фильме
Название: Монки
Оригинальное название: Monky
Год выпуска: 2017
Жанр: Приключения, семейный, драма
Страна: Швеция, Unlimited Stories
Режиссер: Мария Блом
В ролях: София Бах, Инг-Мари Карлссон, Эрик Эриксон, Софи Йаллешпон, Фрида Халлгрен, Юлиус Хименес Хугосон
О фильме: История дружбы одиннадцатилетнего Фрэнка с таинственной обезьяной, которая однажды ночью неожиданно появляется в его доме. Вскоре стало ясно, что это необычное животное и в поисках ответов Фрэнк со своей семьей отправляются в захватывающее приключение, которое приведет их из маленькой шведской деревни в самые глубокие джунгли Таиланда.

Файл
Качество: HDRip 1080p
Видео данные: MKV, 1920x1040 (1.85:1), 23.976 fps, 11500 Кбит/с
Аудио данные: AAC, 2 ch, 192 Кбит/с
Перевод: Любительский многоголосый (GreenРай Studio)
Продолжительность: 01:30:15

Медиаинфо

General
Unique ID : 158262328607765279470763576481207385191 (0x7710373CED2FD6E530AF3400C02D7C67)
Complete name : D:ГРИНРАЙMonky.2017.P.BDRip.1080p.mkv
Format : Matroska
Format version : Version 4 / Version 2
File size : 7.38 GiB
Duration : 1 h 30 min
Overall bit rate : 11.7 Mb/s
Encoded date : UTC 2018-10-05 10:44:45
Writing application : mkvmerge v25.0.0 ('Prog Noir') 64-bit
Writing library : libebml v1.3.6 + libmatroska v1.4.9
Video
ID : 1
Format : AVC
Format/Info : Advanced Video Codec
Format profile : High@L4.1
Format settings : CABAC / 1 Ref Frames
Format settings, CABAC : Yes
Format settings, RefFrames : 1 frame
Format settings, GOP : M=1, N=30
Codec ID : V_MPEG4/ISO/AVC
Duration : 1 h 30 min
Bit rate : 11.5 Mb/s
Width : 1 920 pixels
Height : 1 040 pixels
Display aspect ratio : 1.85:1
Frame rate mode : Constant
Frame rate : 23.976 (24000/1001) FPS
Color space : YUV
Chroma subsampling : 4:2:0
Bit depth : 8 bits
Scan type : Progressive
Bits/(Pixel*Frame) : 0.240
Stream size : 7.26 GiB (98%)
Language : English
Default : Yes
Forced : No
Audio
ID : 2
Format : AAC
Format/Info : Advanced Audio Codec
Format profile : LC
Codec ID : A_AAC-2
Duration : 1 h 30 min
Bit rate : 192 kb/s
Channel(s) : 2 channels
Channel positions : Front: L R
Sampling rate : 48.0 kHz
Frame rate : 46.875 FPS (1024 SPF)
Compression mode : Lossy
Stream size : 122 MiB (2%)
Language : English
Default : Yes
Forced : No
Внимание, имеется видео и аудио реклама от спонсора показа

Скриншоты

Релиз от:
[Profile] [PM]
Кто просматривает тему:

Forum Topic Author Size
Фильмы 2017 года Монки / Monky (2017) HDRip | GreenРай Studio BOSS 1.37 GB
Display posts from previous:    

The time now is: Today 10:58

All times are GMT



You cannot post new topics in this forum
You cannot reply to topics in this forum
You cannot edit your posts in this forum
You cannot delete your posts in this forum
You cannot vote in polls in this forum
You cannot attach files in this forum
You cannot download files in this forum