Всё включено / All Inclusive (2017) HDRip 1080р | GreenРай Studio

 
Автор Сообщение

BOSS ®

Пол:

Стаж: 4 года

Сообщений: 12134

Откуда: ODESSA



Награды: 22 (Подробнее)

Mega Releaser 2 (Количество: 1) Top Keeper 3 (Количество: 1) Top Keeper 1 (Количество: 1)
Торрент-статистика

Создавать темы 06-Окт-2018 10:34

[Цитировать]

Информация о фильме
Название: Всё включено
Оригинальное название: All Inclusive
Год выпуска: 2017
Жанр: Комедия
Страна: Швеция, Avanti Film
Режиссер: Карин Фален
В ролях: Сюзанн Рейтер, Лив Мяёнес, Йенния Сильверйельм, Горан Богдан, Йонас Карлссон, Ксения Маринкович, Якоб Эрикссон, Рафаэль Петтерссон
О фильме: Сестры Туве и Малин отправляются в Хорватию, чтобы отпраздновать 60-летие своей матери Ингер. Но не задолго до праздника, Ингер застаёт своего мужа с любовницей. Это меняет все планы и теперь сестрам придется приложить все усилия, чтобы помочь матери встать на ноги и выйти из депрессии.

Файл
Качество: HDRip 1080p
Видео данные: MKV, 1920x810 (2.40:1), 23.976 fps, 8122 Кбит/с
Аудио данные: AAC, 2 ch, 192 Кбит/с
Перевод: Любительский многоголосый (GreenРай Studio)
Продолжительность: 01:33:11

Медиаинфо

General
Unique ID : 212590610320729616356274113735726835422 (0x9FEF7654C91B219ADCFA5E3BF71DA6DE)
Complete name : D:ГРИНРАЙAll.Inclusive.2017.P.BDRip.1080p.mkv
Format : Matroska
Format version : Version 4 / Version 2
File size : 5.41 GiB
Duration : 1 h 33 min
Overall bit rate : 8 314 kb/s
Encoded date : UTC 2018-10-05 09:19:10
Writing application : mkvmerge v25.0.0 ('Prog Noir') 64-bit
Writing library : libebml v1.3.6 + libmatroska v1.4.9
Video
ID : 1
Format : AVC
Format/Info : Advanced Video Codec
Format profile : High@L4.1
Format settings : CABAC / 1 Ref Frames
Format settings, CABAC : Yes
Format settings, RefFrames : 1 frame
Format settings, GOP : M=1, N=30
Codec ID : V_MPEG4/ISO/AVC
Duration : 1 h 33 min
Bit rate : 8 122 kb/s
Width : 1 920 pixels
Height : 810 pixels
Display aspect ratio : 2.40:1
Frame rate mode : Constant
Frame rate : 23.976 (24000/1001) FPS
Color space : YUV
Chroma subsampling : 4:2:0
Bit depth : 8 bits
Scan type : Progressive
Bits/(Pixel*Frame) : 0.218
Stream size : 5.29 GiB (98%)
Language : English
Default : Yes
Forced : No
Audio
ID : 2
Format : AAC
Format/Info : Advanced Audio Codec
Format profile : LC
Codec ID : A_AAC-2
Duration : 1 h 33 min
Bit rate : 192 kb/s
Channel(s) : 2 channels
Channel positions : Front: L R
Sampling rate : 48.0 kHz
Frame rate : 46.875 FPS (1024 SPF)
Compression mode : Lossy
Stream size : 126 MiB (2%)
Language : English
Default : Yes
Forced : No
Внимание, имеется видео и аудио реклама от спонсора показа

Скриншоты

Релиз от:
[Профиль] [ЛС]
Кто просматривает тему:

Показать сообщения:    

Текущее время: Сегодня 19:13

Часовой пояс: GMT



Вы не можете начинать темы
Вы не можете отвечать на сообщения
Вы не можете редактировать свои сообщения
Вы не можете удалять свои сообщения
Вы не можете голосовать в опросах
Вы не можете прикреплять файлы к сообщениям
Вы не можете скачивать файлы