Невероятные приключения Факира / The Extraordinary Journey of the Fakir (2018) BDRip 1080p | iTunes

 
Автор Сообщение

BOSS ®

Пол:

Стаж: 4 года 2 месяца

Сообщений: 12658

Откуда: ODESSA



Награды: 22 (Подробнее)

Mega Releaser 2 (Количество: 1) Mega Seeder 3 (Количество: 1) Top Releaser 3 (Количество: 1)
Торрент-статистика

Создавать темы 06-Окт-2018 10:24

[Цитировать]

Информация о фильме
Название: Невероятные приключения Факира
Оригинальное название: The Extraordinary Journey of the Fakir
Год выхода: 2018
Жанр: Комедия, приключения
Режиссер: Кен Скотт
В ролях: Дхануш, Беренис Бежо, Эрин Мориарти, Баркхад Абди, Жерар Жюньо, Бен Миллер, Абель Жафри, Сара-Джинн Лабросс, Кай Грейданус, Амрута Сент
О фильме:
Если любовь не стучится в дверь, самое время поискать её на другом конце света. Когда нашел — не потерять. А если потерял — вернуть любой ценой. Пускай для этого придется путешествовать в шкафу, на лодке, на воздушном шаре или даже в чемодане. Мумбаи-Париж-Лондон-Рим — если у чувств нет границ, то и бизнес-класс им не нужен.

Страна: Франция, США, Бельгия, Сингапур, Индия
Студия: Brio Films, Scope Pictures, Little Red Car Films
Продолжительность: 01:35:50
Перевод: Дублированный | iTunes
Файл
Кодек: x.264
Качество: BDRip 1080p
Видео: MPEG-4 AVC, 1920x804, 10,6 Мбит/сек, 24.000 кадр/с
Аудио #1: Русский ( АС3, 6ch, 384 Кбит/с, 48.0 KHz) Профессиональный (дублированный) iTunes
Аудио #2: Английский ( AC3, 6ch, 640 Кбит/с, 48.0 KHz)
Субтитры: нет

MediaInfo:

x264 [info]: frame I:1851 Avg QP:14.90 size:213619
x264 [info]: frame P:29814 Avg QP:16.60 size: 84273
x264 [info]: frame B:106352 Avg QP:18.62 size: 44262
Format : Matroska
Format version : Version 4
File size : 7,78 Гбайт
Duration : 1 ч. 35 м.
Overall bit rate : 11,6 Мбит/сек
Encoded date : UTC 2018-10-05 16:08:45
Writing application : mkvmerge v25.0.0 ('Prog Noir') 64-bit
Writing library : libebml v1.3.6 + libmatroska v1.4.9
Видео
ID : 1
Format : AVC
Format/Info : Advanced Video Codec
Format profile : High@L4.1
Format settings : CABAC / 5 Ref Frames
Format settings, CABAC : Да
Format settings, RefFrames : 5 кадров
Codec ID : V_MPEG4/ISO/AVC
Duration : 1 ч. 35 м.
Bit rate : 10,6 Мбит/сек
Width : 1920 пикселей
Height : 804 пикселя
Display aspect ratio : 2,40:1
Frame rate mode : Постоянный
Frame rate : 24,000 кадра/сек
Color space : YUV
Chroma subsampling : 4:2:0
Bit depth : 8 бит
Scan type : Прогрессивная
Bits/(Pixel*Frame) : 0.286
Stream size : 7,09 Гбайт (91%)
Writing library : x264 core 152 r2851 ba24899
Encoding settings : cabac=1 / ref=5 / deblock=1:-3:-3 / analyse=0x3:0x133 / me=umh / subme=11 / psy=1 / psy_rd=1.00:0.00 / mixed_ref=1 / me_range=32 / chroma_me=1 / trellis=2 / 8x8dct=1 / cqm=0 / deadzone=21,11 / fast_pskip=0 / chroma_qp_offset=-2 / threads=24 / lookahead_threads=2 / sliced_threads=0 / nr=0 / decimate=0 / interlaced=0 / bluray_compat=0 / constrained_intra=0 / bframes=10 / b_pyramid=2 / b_adapt=1 / b_bias=0 / direct=3 / weightb=1 / open_gop=0 / weightp=2 / keyint=240 / keyint_min=24 / scenecut=40 / intra_refresh=0 / rc_lookahead=40 / rc=2pass / mbtree=0 / bitrate=10612 / ratetol=1.0 / qcomp=0.60 / qpmin=0 / qpmax=69 / qpstep=4 / cplxblur=20.0 / qblur=0.5 / vbv_maxrate=50000 / vbv_bufsize=62500 / nal_hrd=none / filler=0 / ip_ratio=1.40 / pb_ratio=1.30 / aq=1:1.00
Language : English
Default : Да
Forced : Нет
Аудио #1
ID : 2
Format : AC-3
Format/Info : Audio Coding 3
Commercial name : Dolby Digital
Codec ID : A_AC3
Duration : 1 ч. 35 м.
Bit rate mode : Постоянный
Bit rate : 384 Кбит/сек
Channel(s) : 6 каналов
Channel layout : L R C LFE Ls Rs
Sampling rate : 48,0 КГц
Frame rate : 31,250 кадров/сек (1536 SPF)
Bit depth : 16 бит
Compression mode : С потерями
Stream size : 262 Мбайт (3%)
Title : iTunes
Language : Russian
Service kind : Complete Main
Default : Да
Forced : Нет
Аудио #2
ID : 3
Format : AC-3
Format/Info : Audio Coding 3
Commercial name : Dolby Digital
Codec ID : A_AC3
Duration : 1 ч. 35 м.
Bit rate mode : Постоянный
Bit rate : 640 Кбит/сек
Channel(s) : 6 каналов
Channel layout : L R C LFE Ls Rs
Sampling rate : 48,0 КГц
Frame rate : 31,250 кадров/сек (1536 SPF)
Bit depth : 16 бит
Compression mode : С потерями
Stream size : 439 Мбайт (6%)
Title : Original
Language : English
Service kind : Complete Main
Default : Нет
Forced : Нет
Меню
00:00:00.000 : en:00:00:00.000
00:09:18.250 : en:00:09:18.250
00:16:21.292 : en:00:16:21.292
00:24:12.417 : en:00:24:12.417
00:34:11.417 : en:00:34:11.417
00:43:00.333 : en:00:43:00.333
00:48:51.458 : en:00:48:51.458
00:59:26.917 : en:00:59:26.917
01:10:36.750 : en:01:10:36.750
01:20:20.625 : en:01:20:20.625
01:28:08.750 : en:01:28:08.750

Скриншоты

[Профиль] [ЛС]
Кто просматривает тему:

Форум Тема Автор Размер
История древнего мира History: Невероятные технологии древних / Ancient Impossible [сезон 1 серии 10 из 10] (Стюарт Кларк / Stuart Clarke) [2014 г., Документальный, история, исследования, HDTVRip-AVC 720p] skorpionN 11.52 GB
PBS PBS: Природа - Невероятные лягушки / PBS: Nature - Fabulous Frogs (Сэлли Томсон / Sally Thomson) [2014, документальный, научно-познавательный, HDTVRip] VO (В. Курдов для AlexFilm) reversefile 719 MB
Фильмы (HD Rips | 720p, 1080p) Неверная / Unfaithful (2002) BDRip 1080p by msltel Russian Mafia 15.7 GB
Фильмы 2010 года Неверный / The Infidel (Джош Аппиньянези / Josh Appignanesi) [2010, Великобритания, драма, комедия, BDRip] DVO (R5) + Sub (Rus, Eng) + Original (Eng) TorrentFilm 2.18 GB
Фильмы (HD Rips | 720p, 1080p) Невероятная жизнь Уолтера Митти / The Secret Life of Walter Mitty (2013) BDRip 1080p | Лицензия BOSS 10.98 GB
Зарубежные мультфильмы Невероятная история о гигантской груше / Den utrolige historie om den kæmpestore pære (2017) BDRip | Лицензия BOSS 1.37 GB
Зарубежные Мультфильмы (BDRip 1080p, 720p, Blu-ray, BD-Remux. 4K) Невероятная история о гигантской груше / Den utrolige historie om den kæmpestore pære (2017) Blu-ray 1080p | Rus Transfer | Лицензия BOSS 12.12 GB
Фильмы (HD Rips | 720p, 1080p) Невероятная правда / The Unbelievable Truth (1989) BDRip 1080p | P2, L1 Russian Mafia 7.93 GB
Показать сообщения:    

Текущее время: Сегодня 13:47

Часовой пояс: GMT



Вы не можете начинать темы
Вы не можете отвечать на сообщения
Вы не можете редактировать свои сообщения
Вы не можете удалять свои сообщения
Вы не можете голосовать в опросах
Вы не можете прикреплять файлы к сообщениям
Вы не можете скачивать файлы