Хот-Дог / Hot Dog (2018) BDRip | iTunes

 
Author Message

BOSS ®

Gender:

Longevity: 4 years 8 months

Posts: 14112

Location: ODESSA



: 22 ()

Mega Releaser 1 (1) Top Releaser 2 (1) Mega Seeder 2 (1)
Торрент-статистика

Post 04-Oct-2018 17:37

[Quote]

Информация о фильме
Название: Хот-Дог
Оригинальное название: Hot Dog
Год выхода: 2018
Жанр: Боевик, комедия
Страна: Германия
Перевод: Дублированный | iTunes
Продолжительность: 01:45:31
Режиссер: Торстен Кюнстлер
В ролях: Тиль Швайгер, Маттиас Швайгхёфер, Энн Шефер, Лиза Томашевски, Йоахим Пауль Ассбёк, Давид Брюкнер, Симсон Баббл, Томас Фелен, Хайно Ферх, Самуэль Финци и др.
О фильме: Могут ли сработаться оперативник-бунтарь, презирающий глупые приказы начальства и молодой полицейский-формалист, у которого на каждый шаг в голове есть инструкция? На глазах у этой парочки похищают дочь президента одной из восточно-европейских стран, и теперь, чтобы отстоять свою честь, они должны вернуть похищенную. Вот только разница в их подходах к работе грозит перевернуть с ног наголову любое дело, за которое они берутся.

Файл
Формат: AVI
Качество: BDRip
Видео: Xvid 73, 704x288, ~1585 kbps, 23,976 fps
Звук: русский, AC3, 5.1 ch, 48 kHz, 384 kbps | iTunes
Субтитры: немецкие (вшитые) на 3 фразы и на названия локаций, учреждений

MI

General
Полное имя : F:TorrentHotDogBDRip.avi
Формат : AVI
Формат/Информация : Audio Video Interleave
Профиль формата : OpenDML
Размер файла : 1.46 GiB
Продолжительность : 1 h 45 min
Общий поток : 1 981 kb/s
Программа кодирования : XviD4PSP 6.0 / 54.27.101
Video
Идентификатор : 0
Формат : MPEG-4 Visual
Профиль формата : Advanced Simple@L5
Настройки формата : BVOP2 / Custom Matrix
Параметр BVOP формата : 2
Параметр QPel формата : No
Параметр GMC формата : No warppoints
Параметр матрицы формата : Custom
Идентификатор кодека : XVID
Идентификатор кодека/Подсказка : XviD
Продолжительность : 1 h 45 min
Битрейт : 1 585 kb/s
Ширина : 704 pixels
Высота : 288 pixels
Соотношение сторон : 2.40:1
Частота кадров : 23.976 (23976/1000) FPS
Цветовое пространство : YUV
Субдискретизация насыщенности : 4:2:0
Битовая глубина : 8 bits
Тип развёртки : Progressive
Метод сжатия : Lossy
Бит/(Пиксели*Кадры) : 0.326
Размер потока : 1.17 GiB (80%)
Библиотека кодирования : XviD 73
Audio
Идентификатор : 1
Формат : AC-3
Формат/Информация : Audio Coding 3
Идентификатор кодека : 2000
Продолжительность : 1 h 45 min
Вид битрейта : Constant
Битрейт : 384 kb/s
Каналы : 6 channels
Расположение каналов : Front: L C R, Side: L R, LFE
Частота : 48.0 kHz
Частота кадров : 31.250 FPS (1536 SPF)
Битовая глубина : 16 bits
Метод сжатия : Lossy
Размер потока : 290 MiB (19%)
Выравнивание : Aligned on interleaves
Продолжительность промежутка : 32 ms (0.77 video frame)
[Profile] [PM]
Кто просматривает тему:

Display posts from previous:    

The time now is: Today 12:08

All times are GMT



You cannot post new topics in this forum
You cannot reply to topics in this forum
You cannot edit your posts in this forum
You cannot delete your posts in this forum
You cannot vote in polls in this forum
You cannot attach files in this forum
You cannot download files in this forum