Бегущий МакАллистер / Moving McAllister (2007) BDRip 1080p | Р2, L1

 
Author Message

BOSS ®

Gender:

Longevity: 4 years 8 months

Posts: 14112

Location: ODESSA



: 22 ()

Top Releaser 3 (1) Top Keeper 1 (1) Mega Seeder 5 (1)
Торрент-статистика

Post 04-Oct-2018 17:30

[Quote]

Бегущий МакАллистер / На верном пути / Moving McAllister
Страна: США
Производство: Revel Entertainment, Camera 40 Productions
Год выпуска: 2007
Жанр: мелодрама, комедия, приключения
Продолжительность: 01:29:58
Режиссер: Эндрю Блэк
Автор сценария: Бен Гурли
В ролях: Бен Гурли, Мила Кунис, Джон Хидер, Рутгер Хауэр, Хаббел Палмер, Билли Драго, Питер Джейсон, Катрин Грэйс, Пэтрика Дарбо, Джо Ангер
Описание: Рик Робинсон — поднимающийся по карьерной лестнице молодой специалист из Майами, у которого осталось лишь четыре дня до победы в нелегком жизненном экзамене. Его к тому же напрягает босс (МакАллистер) просьбой, которую Рик не может себе позволить, но другого выхода нет.
И Робинсон попадает в захудалый грузовик забитый имуществом его босса и отправляется к Лос-Анджелесу, в сопровождении племянницы босса, которая мечтает попасть в Голливуд, и её любимой свиньей. Среди путешествующих автостопом, расстройств, и отбиванием местных мужланов, Рик находит любовь, жизнь и возможно всё в этой обычной американской сделке, дорожной поездке…

Перевод: Профессиональный (двухголосый, закадровый) | Universal Channel + Любительский (одноголосый)
Субтитры: русские (от PuzRomBaS)-Качество: BDRip 1080p
Формат: МКV
Видео кодек: AVC
Аудио кодек: AC3
Видео: 1920x1080 (16:9), 23.976 fps, MPEG-4 AVC ~12.5 Mbps avg
Аудио №1: 48.0 kHz, AC3 Dolby Digital, 2/0 (L,R) ch, ~192 kbps | RUS / DVO / Universal Channel
Аудио №2: 48.0 kHz, AC3 Dolby Digital, 3/2 (L,C,R,l,r) + LFE ch, ~384 kbps | RUS / VO
Аудио №3: 48.0 kHz, AC3 Dolby Digital, 2/0 (L,R) ch, ~640 kbps | ENG
Формат субтитров: UTF-8 Plain Text
Дата премьеры (мир): 14 сентября 2007
Релиз от:

Media Info

General
Полное имя : Moving.McAllister.2007.1080p.BluRay.x264.mkv
Формат : Matroska
Размер файла : 8.78 GiB
Продолжительность : 1h 29mn
Общий поток : 14.0 Mbps
Дата кодирования : UTC 2011-04-04 03:27:59
Программа кодирования : mkvmerge v3.0.0 ('Hang up your Hang-Ups') built on Jan 6 2010 22:49:38
Библиотека кодирования : libebml v0.7.9 + libmatroska v0.8.1
Video
Идентификатор : 1
Формат : AVC
Формат/Информация : Advanced Video Codec
Профайл формата : High@L4.1
Параметры CABAC формата : Yes
Параметры ReFrames формата : 4 frames
Режим смешивания : Container profile=Unknown@4.1
Идентификатор кодека : V_MPEG4/ISO/AVC
Продолжительность : 1h 29mn
Битрейт : 12.5 Mbps
Ширина : 1 920 pixels
Высота : 1 080 pixels
Соотношение кадра : 16:9
Частота кадров : 23.976 fps
Разрешение : 8 bits
Колориметрия : 4:2:0
Тип развёртки : Progressive
Бит/(Пиксели*Кадры) : 0.251
Размер потока : 7.83 GiB (89%)
Заголовок : RG Uralmix
Библиотека кодирования : x264 core 114 r1924 08d04a4
Настройки программы : cabac=1 / ref=4 / deblock=1:0:0 / analyse=0x3:0x133 / me=umh / subme=7 / psy=1 / psy_rd=1.00:0.00 / mixed_ref=1 / me_range=16 / chroma_me=1 / trellis=1 / 8x8dct=1 / cqm=0 / deadzone=21,11 / fast_pskip=0 / chroma_qp_offset=-2 / threads=6 / sliced_threads=0 / nr=0 / decimate=1 / interlaced=0 / constrained_intra=0 / bframes=3 / b_pyramid=2 / b_adapt=1 / b_bias=0 / direct=3 / weightb=1 / open_gop=0 / weightp=2 / keyint=250 / keyint_min=23 / scenecut=40 / intra_refresh=0 / rc_lookahead=40 / rc=crf / mbtree=1 / crf=20.0 / qcomp=0.60 / qpmin=10 / qpmax=51 / qpstep=4 / ip_ratio=1.40 / aq=1:1.00
Audio #1
Идентификатор : 2
Формат : AC-3
Формат/Информация : Audio Coding 3
Идентификатор кодека : A_AC3
Продолжительность : 1h 29mn
Вид битрейта : Constant
Битрейт : 192 Kbps
Канал(ы) : 2 channels
Расположение каналов : L R
Частота : 48.0 KHz
Размер потока : 124 MiB (1%)
Заголовок : DVO
Язык : Russian
Audio #2
Идентификатор : 3
Формат : AC-3
Формат/Информация : Audio Coding 3
Идентификатор кодека : A_AC3
Продолжительность : 1h 29mn
Вид битрейта : Constant
Битрейт : 384 Kbps
Канал(ы) : 6 channels
Расположение каналов : Front: L C R, Surround: L R, LFE
Частота : 48.0 KHz
Размер потока : 247 MiB (3%)
Заголовок : VO
Язык : Russian
Audio #3
Идентификатор : 4
Формат : AC-3
Формат/Информация : Audio Coding 3
Идентификатор кодека : A_AC3
Продолжительность : 1h 29mn
Вид битрейта : Constant
Битрейт : 640 Kbps
Канал(ы) : 2 channels
Расположение каналов : L R
Частота : 48.0 KHz
Размер потока : 412 MiB (5%)
Язык : English
Text
Идентификатор : 5
Формат : UTF-8
Идентификатор кодека : S_TEXT/UTF8
Идентификатор кодека/Информация : UTF-8 Plain Text
Язык : Russian

Скриншоты

[Profile] [PM]
Кто просматривает тему:

Forum Topic Author Size
Фильмы 2016 года Бегущая от реальности / Complete Unknown (2016) BDRip | iTunes BOSS 1.42 GB
Фильмы (HD Rips | 720p, 1080p) Бегущий в лабиринте / The Maze Runner (2014) BDRip 1080p | iTunes sergej644 8.02 GB
Фильмы (HD Rips | 720p, 1080p) Бегущий в лабиринте / The Maze Runner (2014) BDRip [1080p] sergej644 11.85 GB
Фильмы (HD Rips | 720p, 1080p) Бегущий в лабиринте / The Maze Runner (2014) BDRip-AVC от R.G. HD-Films | 60 fps | Лицензия sergej644 3.82 GB
Ultra HD (UHD: 2K,4K, 8K) — видео сверхвысокой чёткости Бегущий в лабиринте / The Maze Runner (2014) UHD BDRemux 2160p | 4K | HDR | D, A | Лицензия BOSS 41.24 GB
Фильмы 2014 года Бегущий в лабиринте / The Maze Runner (Уэс Болл / Wes Ball) [2014, США, Великобритания, Канада, фантастика, триллер, приключения, BDRip-AVC] Dub (Rus) + Dub (Urk) + Original (Eng) + Subs TorrentFilm 2.61 GB
Фильмы 2014 года Бегущий в лабиринте / The Maze Runner (Уэс Болл / Wes Ball) [2014, США, Великобритания, Канада, фантастика, триллер, приключения, BDRip-AVC] Dub + Dub Ukr + Sub Rus, Ukr, Eng + Original Eng TorrentFilm 2.27 GB
Фильмы 2014 года Бегущий в лабиринте / The Maze Runner (Уэс Болл / Wes Ball) [2014, США, Великобритания, Канада, Фантастика, триллер, приключения, BDRip-AVC] Dub + Sub Rus,Eng + Original Eng TorrentFilm 2.74 GB
Display posts from previous:    

The time now is: Today 11:38

All times are GMT



You cannot post new topics in this forum
You cannot reply to topics in this forum
You cannot edit your posts in this forum
You cannot delete your posts in this forum
You cannot vote in polls in this forum
You cannot attach files in this forum
You cannot download files in this forum