Кукловод: Самый маленький рейх / Puppet Master: The Littlest Reich (2018) WEBRip | L2

 
Автор Сообщение

BOSS ®

Пол:

Стаж: 4 года

Сообщений: 12134

Откуда: ODESSA



Награды: 22 (Подробнее)

Top Seeder 4 (Количество: 1) Mega Releaser 4 (Количество: 1) Mega Releaser 1 (Количество: 1)
Торрент-статистика

Создавать темы 04-Окт-2018 17:25

[Цитировать]

Информация о фильме
Название: Кукловод: Самый маленький рейх
Оригинальное название: Puppet Master: The Littlest Reich
Год выхода: 2018
Жанр: Ужасы
Режиссер: Сонни Лагуна, Томмю Виклунд
В ролях: Майкл Паре, Томас Леннон, Шарлин Йи, Удо Кир, Барбара Крэмптон, Нельсон Франклин, Маттиас Хьюз, Дженни Пеллисер, Тина Паркер, Бетси Холт и другие
О фильме:
Молодой человек обнаруживает потрёпанную куклу в шкафу покойного брата. Он решает продать куклу на конвенте в Орегоне, где отмечают 30-летие знаменитых убийств Тулона. Но время аукциона неведомая злая сила оживляет всех выставленных на продажу кукол, и те немедленно устраивают кровавую баню.

Страна: Великобритания, США, Cinestate,Ghost Horse,Zero Trans Fat Productions
Продолжительность: 01:30:37
Перевод: Любительский (двухголосый закадровый) | HiWay Grope
Файл
Кодек: XviD
Качество: WEBRip
Видео: 720x304, 25 fps, ~1666 kbps, 0.30 bit/pixel
Звук:
Аудио rus: AC3, 48 kHz, 6 ch, 384 Kbps
Субтитры: отсутствуют
Реклама: присутствует
Семпл

MediaInfo:

General
Complete name : D:Puppet.Master.The.Littlest.Reich.2018.WEBRip.HiWayGropePuppet.Master.The.Littlest.Reich.2018.WEBRip.HiWayGrope.avi
Format : AVI
Format/Info : Audio Video Interleave
File size : 1.30 GiB
Duration : 1 h 30 min
Overall bit rate : 2 060 kb/s
Writing application : VirtualDubMod 1.5.10.2 (build 2540/release)
Writing library : VirtualDubMod build 2540/release
Video
ID : 0
Format : MPEG-4 Visual
Format profile : Advanced Simple@L5
Format settings : BVOP1
Format settings, BVOP : 1
Format settings, QPel : No
Format settings, GMC : No warppoints
Format settings, Matrix : Default (H.263)
Codec ID : XVID
Codec ID/Hint : XviD
Duration : 1 h 30 min
Bit rate : 1 666 kb/s
Width : 720 pixels
Height : 304 pixels
Display aspect ratio : 2.40:1
Frame rate : 25.000 FPS
Color space : YUV
Chroma subsampling : 4:2:0
Bit depth : 8 bits
Scan type : Progressive
Compression mode : Lossy
Bits/(Pixel*Frame) : 0.305
Stream size : 1.05 GiB (81%)
Writing library : XviD 67
Audio
ID : 1
Format : AC-3
Format/Info : Audio Coding 3
Codec ID : 2000
Duration : 1 h 30 min
Bit rate mode : Constant
Bit rate : 384 kb/s
Channel(s) : 6 channels
Channel positions : Front: L C R, Side: L R, LFE
Sampling rate : 48.0 kHz
Frame rate : 31.250 FPS (1536 SPF)
Bit depth : 16 bits
Compression mode : Lossy
Stream size : 249 MiB (19%)
Alignment : Split accross interleaves
Interleave, duration : 40 ms (1.00 video frame)
Interleave, preload duration : 500 ms
Service kind : Complete Main

Скриншоты

Релиз от: HiWay Grope
[Профиль] [ЛС]
Показать сообщения:    

Текущее время: Сегодня 18:32

Часовой пояс: GMT



Вы не можете начинать темы
Вы не можете отвечать на сообщения
Вы не можете редактировать свои сообщения
Вы не можете удалять свои сообщения
Вы не можете голосовать в опросах
Вы не можете прикреплять файлы к сообщениям
Вы не можете скачивать файлы